2 сезон

iTunes

1 сезон

1

iTunes

iTunes

iTunes

1 сезон

RePack

30

ИГРА 18+

pack

ВАЖНО

!!Акция!!

Alien_RageХит недели

RePack

MK11
pack

Забери бонус

RePack

jed

!!Акция!!

Alien_Rage

RePack

fifa19

RePack

Assassins Creed: Odyssey

RePack

NEED FOR SPEED™ PAYBACK

4 сезон

9 сезон

Бесстыжие 9 сезон

Все сериалы

все сериалы на PB.wtf

RePack

FAR CRY 5
  

Мышиный дом, или дом злодеев / Mickey's House of Villains (Джэми Митчел, Тони Крэйг, Роберт Ганнавей, Майк Мун... / Jamie Mitchell, Tony Craig, Roberts Gannaway, Mike Moon...)[2001, мультфильм, комедия, семейный, DVDRip-AVC] DUB + MVO + Eng pb.wtf

Мышиный дом, или дом злодеев через торрент pb.wtf

Размер: 1.4 GB | Добавлен: 6 лет 5 мес. назад | Торрент скачан:76 раз
Скачать  

13-05-2014 12:17 Мышиный дом, или дом злодеев Скачать торрент  


Год выпуска: 2001
Страна: США
Жанр: мультфильм, комедия, семейный
Продолжительность: 01:08:02
Перевод: Профессиональный (полное дублирование)+Профессиональный (многоголосый, закадровый)
Субтитры: английские
Режиссер: Джэми Митчелл / Jamie Mitchell, Тони Крэйг / Tony Craig, Роберт Ганнавей / Robert Gannaway
Сценарий: Томас Харт / Thomas Hart, Кевин Кэмпбелл / Kevin Campbell, Роберт Ганнавей / Robert Gannaway, Генри Гилрой / Henry Gilroy, Джимн Магон / Jymn Magon
Продюсер: Мелинда Дилджер / Melinda Dilger, Тони Крэйг / Tony Craig, Роберт Ганнавей / Robert Gannaway, Ларри Джонсон / Larry Johnson
Композитор: Майкл Тавера / Michael Tavera
В ролях: Уэйн Оллвэйн (Mickey Mouse, озвучка), Тони Ансельмо (Donald Duck, Huey, Dewey, Louie, озвучка), Джефф Беннетт (Salesman, (segment 'Mickey's Mechanical House'), озвучка), Сьюзан Блэйксли (Cruella De Vil, озвучка), Кори Бертон (Captain Hook, Chernabog, 'How to' рассказчик, Chief O'Hara, озвучка), Пэт Кэрролл (Ursula, озвучка), Джон Клиз (рассказчик, (segment 'Mickey's Mechanical House'), озвучка), Джим Каммингс (Big Bad Wolf, Kaa, Ed the Hyena, озвучка), Билл Фармер (Goofy, озвучка), Джон Фидлер (Piglet, озвучка), Джонатан Фриман (Jafar, озвучка), Мэтт Фрюэр (Panic, озвучка)
Мировая премьера: 15 ноября 2001
Описание:
Банда негодяев во главе с Джафаром пытается захватить домик Микки Мауса и превратить его в дом злодеев. Но верные друзья Микки - Дональд Дак, Гуффи, Плуто - как всегда рядом и готовы сражаться за торжество справедливости. Остановить и победить злодеев им помогают взаимовыручка, смекалка, чувство юмора и добрые сердца...

Качество: DVDRip-AVC
Формат: MKV
Видео кодек: AVC
Аудио кодек:AC3
Видео: AVC; 706x480 (4:3); 1825 Kbps; 29,970 fps; 0,180 bpp
Аудио №1: русский; AC3; 224 Kbps; CBR; 2 ch; / 48 kHz/DUB
Аудио №2: русский; AC3; 384 Kbps; CBR; 6 ch; / 48 kHz/MVO
Аудио №3: английский; AC3; 448 Kbps; CBR; 6 ch;/ 48 kHz
General
Unique ID : 224339787737351186254280369154410243215 (0xA8C6458081565C56B8DBE6CEEB11648F)
Complete name : Mickey's.House.of.Villains.2001.DVDRip.rutracker-xfiles.mkv
Format : Matroska
Format version : Version 4 / Version 2
File size : 1.40 GiB
Duration : 1h 8mn
Overall bit rate : 2 940 Kbps
Movie name : Mickey's.House.of.Villains.2001.DVDRip.rutracker-xfiles
Encoded date : UTC 2014-04-25 15:09:17
Writing application : mkvmerge v6.9.1 ('Blue Panther') 64bit built on Apr 18 2014 18:23:38
Writing library : libebml v1.3.0 + libmatroska v1.4.1

Video
ID : 1
Format : AVC
Format/Info : Advanced Video Codec
Format profile : High@L4.0
Format settings, CABAC : Yes
Format settings, ReFrames : 16 frames
Codec ID : V_MPEG4/ISO/AVC
Duration : 1h 8mn
Bit rate : 1 825 Kbps
Width : 706 pixels
Height : 480 pixels
Display aspect ratio : 4:3
Frame rate mode : Constant
Frame rate : 29.970 fps
Color space : YUV
Chroma subsampling : 4:2:0
Bit depth : 8 bits
Scan type : Progressive
Bits/(Pixel*Frame) : 0.180
Stream size : 888 MiB (62%)
Title : http://rutracker.org/forum/viewtopic.php?t=4724631
Writing library : x264 core 142 r2409kMod d6b4e63
Encoding settings : cabac=1 / ref=16 / deblock=1:-2:-1 / analyse=0x3:0x133 / me=umh / subme=11 / psy=1 / fade_compensate=0.00 /
psy_rd=1.00:0.00 / mixed_ref=1 / me_range=48 / chroma_me=1 / trellis=2 / 8x8dct=1 / cqm=0 / deadzone=21,11 / fast_pskip=0 / chroma_qp_offset=-2 /
threads=12 / lookahead_threads=3 / sliced_threads=0 / nr=0 / decimate=1 / interlaced=0 / bluray_compat=0 / constrained_intra=0 / fgo=0 / bframes=16 /
b_pyramid=2 / b_adapt=2 / b_bias=0 / direct=3 / weightb=1 / open_gop=0 / weightp=2 / keyint=250 / keyint_min=25 / scenecut=40 / intra_refresh=0 / rc=crf /
mbtree=0 / crf=18.0000 / qcomp=0.60 / qpmin=0 / qpmax=69 / qpstep=4 / ip_ratio=1.40 / pb_ratio=1.30 / aq=3:0.90
Language : English
Default : Yes
Forced : No
Color primaries : BT.601
Transfer characteristics : BT.470 System B, BT.470 System G
Matrix coefficients : BT.601

Audio #1
ID : 2
Format : AC-3
Format/Info : Audio Coding 3
Mode extension : CM (complete main)
Format settings, Endianness : Big
Codec ID : A_AC3
Duration : 1h 8mn
Bit rate mode : Constant
Bit rate : 224 Kbps
Channel(s) : 2 channels
Channel positions : Front: L R
Sampling rate : 48.0 KHz
Bit depth : 16 bits
Compression mode : Lossy
Stream size : 109 MiB (8%)
Title : Дубляж | "Нева-фильм"
Language : Russian
Default : Yes
Forced : No

Audio #2
ID : 3
Format : AC-3
Format/Info : Audio Coding 3
Mode extension : CM (complete main)
Format settings, Endianness : Big
Codec ID : A_AC3
Duration : 1h 8mn
Bit rate mode : Constant
Bit rate : 384 Kbps
Channel(s) : 6 channels
Channel positions : Front: L C R, Side: L R, LFE
Sampling rate : 48.0 KHz
Bit depth : 16 bits
Compression mode : Lossy
Stream size : 187 MiB (13%)
Title : Многоголосый закадровый
Language : Russian
Default : No
Forced : No

Audio #3
ID : 4
Format : AC-3
Format/Info : Audio Coding 3
Mode extension : CM (complete main)
Format settings, Endianness : Big
Codec ID : A_AC3
Duration : 1h 8mn
Bit rate mode : Constant
Bit rate : 448 Kbps
Channel(s) : 6 channels
Channel positions : Front: L C R, Side: L R, LFE
Sampling rate : 48.0 KHz
Bit depth : 16 bits
Compression mode : Lossy
Stream size : 218 MiB (15%)
Title : Original
Language : English
Default : No
Forced : No

Text
ID : 5
Format : UTF-8
Codec ID : S_TEXT/UTF8
Codec ID/Info : UTF-8 Plain Text
Title : SDH
Language : English
Default : No
Forced : No

Menu
00:00:00.000 : 01. Opening Credits / Trick Or Treat
00:10:02.068 : 02. Mickey's Mechanical House
00:17:41.093 : 03. How To Haunt A House
00:23:52.631 : 04. Lonesome Ghosts
00:32:22.908 : 05. Dance Of The Goofys
00:38:33.244 : 06. Donald Duck And The Gorilla
00:45:21.085 : 07. "It's Our House Now"
00:48:05.249 : 08. Donald's Halloween Scare
00:55:25.088 : 09. Hansel & Gretel
01:01:58.081 : 10. Mickey Saves The House / End Credits

pb.wtf



Скачать Мышиный дом, или дом злодеев через торрент http://i61.fastpic.ru/big/2014/0513/02/b5a602b038ce57a4cd758d23c330da02.png Скачать фильм Мышиный дом, или дом злодеев через торрент бесплантно в хорошем качестве Описание: Банда негодяев во главе с Джафаром пытается захватить домик Микки Мауса и превратить его в дом злодеев. Но верные друзья Микки - ... 10 10 5
Info! Золотая раздача, скачанное не засчитывается.
Торрент: Зарегистрирован [2014-05-13 12:17] · скачан: 76 раз
Статус: √ проверено
Размер: 1.4 GB
Как cкачать? Как скачать Мышиный дом, или дом злодеев через торрент | qTorrent



Последний раз редактировалось: Серёжк@ (2014-05-13 14:58), всего редактировалось 4 раз(а)

28-11-2019 20:33  

Отключить всю рекламу на сайте

    Дорогой пользователь! Огромная просьба, поблагодарите релизера, оцените раздачу и оставьте свои комментарий, если Вы скачали Мышиный дом, или дом злодеев через торрент бесплатно! Внесите свою лепту в развитие PiratBit!
    Комментировать посты могут только пользователи прошедшие не сложную регистрацию
    Показать сообщения:    

    Мышиный дом, или дом злодеев через торрент
    Скачать бесплатно Мышиный дом, или дом злодеев
    Мышиный дом, или дом злодеев скачать торрент
    Мышиный дом, или дом злодеев смотреть онлайн
    Cкачать фильм Мышиный дом, или дом злодеев бесплатно
    Мышиный дом, или дом злодеев скачать торрент в хорошем качестве
    Мышиный дом, или дом злодеев смотреть онлайн бесплатно в хорошем качестве


    Вы не можете начинать темы
    Вы не можете отвечать на сообщения
    Вы не можете редактировать свои сообщения
    Вы не можете удалять свои сообщения
    Вы не можете голосовать в опросах
    Вы не можете прикреплять файлы к сообщениям
    Вы можете скачивать файлы