Архив 81

1 сезон

Добыча

Дубляж

Тед Лассо

3 сезон

Тор

1 сезон

13 клиническая

3 сезон

Жестокая ночь

Дубляж

Одни из нас

Лицензия

The Last of Us игра на PC

Extended

Deluxe

Deluxe

pack

Рекомендуем

30

Repack

ВАЖНО

ВАЖНО

Ghostwire

Пиратка

jed

RePack

nioh2

RePack

RDR2

RePack

NEED FOR SPEED™ PAYBACK

RePack

скачать торрент

Кинопоиск HD

Острые козырьки 6 сезон

6 сезон

FAR CRY 6

RePack

скачать торрент

Лицензия

скачать торрент

MVO

1

1 сезон

скачать торрент

1 сезон

скачать торрент

Лицензия

  

Синий тигр / Modrý tygr (Петр Оукропец / Petr Oukropec, Богдан Слама / Bohdan Sláma) [2012, Чехия, семейный, DVDRip,Профессиональный (многоголосый, закадровый) [НТВ+]

Синий тигр через торрент pb.wtf

Размер: 1.37 GB | Добавлен: 8 лет 10 мес. назад | Торрент скачан:56 раз
Смотреть онлайн | Скачать | Поддержите нас   

13-05-2014 15:30 Синий тигр Скачать торрент  

Синий тигр / Modrý tygr


Год выпуска: 2012
Страна:Чехия
Жанр:семейный
Продолжительность:01:27:35
Перевод:Профессиональный (многоголосый, закадровый) [НТВ+]
Субтитры: Нет
Режиссер:Петр Оукропец / Petr Oukropec, Богдан Слама / Bohdan Sláma

  • В ролях:

    Линда Вотрубова (Johanka), Ян Гартль (Kytka), Даниэль Древес (Mayor RГЅp), Либуше Гавелкова, Барбара Хрзанова (GerzovГЎ), Lukas Slatkovsky, Якуб Вунш (MatyГЎs)

  • Описание:
    Девочка и мальчик противостоят попыткам амбициозного главы местной администрации снести ботанический сад, в котором они живут вместе с родителями, чтобы построить на его месте современный квартал. Их шансы близки к нулю, но случается чудо, и к ним на помощь неожиданно приходит синий тигрёнок...

  • Мировая премьера:23 февраля 2012


      Качество: DVDRip
      Формат: AVI
      Видео кодек: XviD
      Аудио кодек:AC3
      Видео: XviD, 720x384 (1.875), 2031 kbps, 25 fps, 0,294 bpp
      Аудио: AC3 / 2.0 / 48 kHz / 192 kbps / 16 bit

    Код:

    General
    Complete name                            : D:\Торенты\Sinij.tigr.2012.P.DVDRip.avi
    Format                                   : AVI
    Format/Info                              : Audio Video Interleave
    File size                                : 1.37 GiB
    Duration                                 : 1h 27mn
    Overall bit rate                         : 2 233 Kbps
    Writing application                      : VirtualDubMod 1.5.10.2 (build 2540/release)
    Writing library                          : VirtualDubMod build 2540/release

    Video
    ID                                       : 0
    Format                                   : MPEG-4 Visual
    Format profile                           : Advanced [email protected]
    Format settings, BVOP                    : 2
    Format settings, QPel                    : No
    Format settings, GMC                     : No warppoints
    Format settings, Matrix                  : Default (MPEG)
    Codec ID                                 : XVID
    Codec ID/Hint                            : XviD
    Duration                                 : 1h 27mn
    Bit rate                                 : 2 032 Kbps
    Width                                    : 720 pixels
    Height                                   : 384 pixels
    Display aspect ratio                     : 1.875
    Frame rate                               : 25.000 fps
    Color space                              : YUV
    Chroma subsampling                       : 4:2:0
    Bit depth                                : 8 bits
    Scan type                                : Progressive
    Compression mode                         : Lossy
    Bits/(Pixel*Frame)                       : 0.294
    Stream size                              : 1.24 GiB (91%)
    Writing library                          : XviD 1.2.1 (UTC 2008-12-04)

    Audio
    ID                                       : 1
    Format                                   : AC-3
    Format/Info                              : Audio Coding 3
    Mode extension                           : CM (complete main)
    Codec ID                                 : 2000
    Duration                                 : 1h 27mn
    Bit rate mode                            : Constant
    Bit rate                                 : 192 Kbps
    Channel(s)                               : 2 channels
    Channel positions                        : Front: L R
    Sampling rate                            : 48.0 KHz
    Bit depth                                : 16 bits
    Compression mode                         : Lossy
    Stream size                              : 120 MiB (9%)
    Alignment                                : Split accross interleaves
    Interleave, duration                     : 40 ms (1.00 video frame)
    Interleave, preload duration             : 500 ms

    Скриншоты:

    Каталог Новинок (Фильмы-трейлеры, Игры, Сериалы, Мультфильмы)

    © Оформление by Raven



  • Скачать Синий тигр через торрент https://pic.kartinco.top/new/img/2014-05/13/7ukalv401tncg45fwuj3wq491.jpg Скачать, смотреть онлайн Синий тигр бесплантно в хорошем качестве Описание:Девочка и мальчик противостоят попыткам амбициозного главы местной администрации снести ботанический сад, в котором они живут ... 5 10 1
    Торрент: Зарегистрирован [2014-05-13 15:30] · скачан: 56 раз
    Статус: √ проверено
    Размер: 1.37 GB
    Как cкачать? Как скачать Синий тигр через торрент | UTorrent

    28-11-2019 20:33  


    Отключить вcю реклaмy на сайте, в т.ч. и в плеере онлайн просмотра!

      Дорогой пользователь! Огромная просьба, поблагодарите релизера, оцените раздачу и оставьте свои комментарий, если Вы скачали Синий тигр через торрент бесплатно!!
      Комментировать посты могут только пользователи прошедшие не сложную регистрацию
      Показать сообщения:    


      Синий тигр через торрент
      Скачать бесплатно Синий тигр
      Синий тигр скачать торрент
      Синий тигр смотреть онлайн
      Cкачать фильм Синий тигр бесплатно
      Синий тигр скачать торрент в хорошем качестве
      Синий тигр смотреть онлайн бесплатно в хорошем качестве
      Вы не можете начинать темы
      Вы не можете отвечать на сообщения
      Вы не можете редактировать свои сообщения
      Вы не можете удалять свои сообщения
      Вы не можете голосовать в опросах
      Вы не можете прикреплять файлы к сообщениям
      Вы можете скачивать файлы
      Синий тигр / Modrý tygr [2012, Чехия, семейный, DVDRip,Профессиональный [НТВ picoco.icu