новый адрес
Ссылка на приватное зеркало всего за 1$. Внимание количество ограничено!!!

iTunes

1+1

iTunes

мы

iTunes

1

iTunes

Чернобыль

iTunes

Ральф против интернета

Лицензия

ПШазам

Лицензия

Оно 2

Лицензия

30
pack

Вам бонус

ВАЖНО

!!Акция!!

Alien_RageХит недели

RePack

Resident Evil 21

ИГРА 18+

pack

RePack

jed

!!Акция!!

Alien_Rage

RePack

fifa19

RePack

Assassins Creed: Odyssey

RePack

NEED FOR SPEED™ PAYBACK

3 сезон

9 сезон

Бесстыжие 9 сезон

Все сериалы

все сериалы на PB.wtf

RePack

FAR CRY 5
Ребята, катастрофически не хватает 1900р. для оплаты серверов за Октябрь (всвязи с блокировками трафик упал в 3 раза), 1-2р., выручайте.
  

Помпеи / Pompeii (Пол У. С. Андерсон) [2013 г., Приключения, боевик, драма, мелодрама, HDRip-AVC, Дубляж, Лицензия [iTunes] (От R.G. PiratFilms) pb.wtf

Помпеи через торрент pb.wtf

Размер: 1.46 GB | Добавлен: 5 лет 6 мес. назад | Торрент скачан:6018 раз
Скачать  

13-05-2014 16:19 Помпеи Скачать торрент  

Год выпуска: 2013
Страна: США, Германия, Канада
Жанр: Приключения, боевик, драма, мелодрама
Продолжительность: 01:44:59
Перевод: Дубляж, Лицензия [iTunes]

Режиссер: Пол У. С. Андерсон

В ролях: Саша Ройз, Кэрри-Энн Мосс, Адевале Акинойе-Агбаже, Эмили Браунинг, Джессика Лукас, Кифер Сазерленд, Кит Харингтон, Джо Пинг, Джаред Харрис, Карри Грэм

Описание: История любви раба Майло и благородной Кассии, обрученной с римским сенатором, на фоне извержения Везувия, которое навсегда стерло с лица земли древнеримский город Помпеи..

Качество: HDRip-AVC
Формат: MKV
Видео кодек: AVC
Аудио кодек: AC3
Видео: AVC, 1024x426 (2.40:1), 23.976 fps, 1 609 Kbps (0.154 bit/pixel)
Аудио: AC-3, 48.0 KHz, 6 ch, 384 Kbps, CBR Дублированный [iTunes]

Релиз от: Рип by White Smoke
скриншот   скриншот   скриншот   скриншот   скриншот  

Код:

---[Information] [13.05.2014 13:04:58] x264 [info]: frame I:1614  Avg QP:16.40  size: 63666  PSNR Mean Y:46.95 U:50.35 V:51.25 Avg:47.80 Global:47.24
---[Information] [13.05.2014 13:04:58] x264 [info]: frame P:35742 Avg QP:19.58  size: 16373  PSNR Mean Y:44.92 U:50.56 V:51.42 Avg:45.97 Global:45.16
---[Information] [13.05.2014 13:04:58] x264 [info]: frame B:113676 Avg QP:21.37  size:  5084  PSNR Mean Y:44.26 U:50.01 V:51.02 Avg:45.38 Global:44.53
---[Information] [13.05.2014 13:04:58] x264 [info]: consecutive B-frames:  2.9%  3.3%  8.1% 40.6% 13.0% 15.2%  7.5%  8.4%  1.1%

Общее
Уникальный идентификатор                 : 188568902972245030903252654367462411316 (0x8DDD0CB7EC6A15EC85E288ABFD084C34)
Полное имя                               : D:\Games\Pompei.2013.HDRip-AVC.by.White Smoke.R.G. PiratFilms.mkv
Формат                                   : Matroska
Версия формата                           : Version 4 / Version 2
Размер файла                             : 1,46 Гбайт
Продолжительность                        : 1 ч. 44 м.
Общий поток                              : 1993 Кбит/сек
Название фильма                          : Pompei.2013.HDRip-AVC.by.White Smoke.R.G. PiratFilms.mkv
Дата кодирования                         : UTC 2014-05-13 15:21:04
Программа кодирования                    : mkvmerge v6.8.0 ('Theme for Great Cities') 64bit built on Mar  2 2014 21:34:26
Библиотека кодирования                   : libebml v1.3.0 + libmatroska v1.4.1

Видео
Идентификатор                            : 1
Формат                                   : AVC
Формат/Информация                        : Advanced Video Codec
Профиль формата                          : High@L4.1
Параметр CABAC формата                   : Да
Параметр ReFrames формата                : 12 кадров
Идентификатор кодека                     : V_MPEG4/ISO/AVC
Продолжительность                        : 1 ч. 44 м.
Битрейт                                  : 1609 Кбит/сек
Ширина                                   : 1024 пикселя
Высота                                   : 426 пикселей
Соотношение сторон                       : 2,40:1
Режим частоты кадров                     : Постоянный
Частота кадров                           : 23,976 кадра/сек
Цветовое пространство                    : YUV
Субдискретизация насыщенности            : 4:2:0
Битовая глубина                          : 8 бит
Тип развёртки                            : Прогрессивная
Бит/(Пиксели*Кадры)                      : 0.154
Размер потока                            : 1,15 Гбайт (79%)
Библиотека кодирования                   : x264 core 138 r2358 9e941d1
Настройки программы                      : cabac=1 / ref=12 / deblock=1:-3:-3 / analyse=0x3:0x113 / me=umh / subme=9 / psy=1 / psy_rd=1.00:0.00 / mixed_ref=1 / me_range=32 / chroma_me=1 / trellis=2 / 8x8dct=1 / cqm=0 / deadzone=21,11 / fast_pskip=1 / chroma_qp_offset=-2 / threads=12 / lookahead_threads=2 / sliced_threads=0 / nr=0 / decimate=1 / interlaced=0 / bluray_compat=0 / constrained_intra=0 / bframes=8 / b_pyramid=2 / b_adapt=2 / b_bias=8 / direct=1 / weightb=0 / open_gop=0 / weightp=2 / keyint=240 / keyint_min=23 / scenecut=40 / intra_refresh=0 / rc_lookahead=40 / rc=2pass / mbtree=1 / bitrate=1609 / ratetol=1.0 / qcomp=0.65 / qpmin=0 / qpmax=69 / qpstep=4 / cplxblur=20.0 / qblur=0.5 / ip_ratio=1.40 / aq=1:1.00
Язык                                     : English
Default                                  : Да
Forced                                   : Нет

Аудио
Идентификатор                            : 2
Формат                                   : AC-3
Формат/Информация                        : Audio Coding 3
Расширение режима                        : CM (complete main)
Параметр Endianness формата              : Big
Идентификатор кодека                     : A_AC3
Продолжительность                        : 1 ч. 44 м.
Вид битрейта                             : Постоянный
Битрейт                                  : 384 Кбит/сек
Каналы                                   : 6 каналов
Расположение каналов                     : Front: L C R, Side: L R, LFE
Частота                                  : 48,0 КГц
Битовая глубина                          : 16 бит
Метод сжатия                             : С потерями
Размер потока                            : 288 Мбайт (19%)
Язык                                     : Russian
Default                                  : Да
Forced                                   : Нет


За Обложку к релизу спасибо XLASERpb.wtf



Скачать Помпеи через торрент http://pic.kartinco.top/new/img/2014-05/13/ohrpe6f8t2h518edbfb3yzi9z.png Скачать фильм Помпеи через торрент бесплантно в хорошем качестве Описание: История любви раба Майло и благородной Кассии, обрученной с римским сенатором, на фоне извержения Везувия, которое навсегда ... 9.3 10 152
Info! Золотая раздача, скачанное не засчитывается.
Торрент: Зарегистрирован [2014-05-13 16:19] · скачан: 6 018 раз
Статус: √ проверено
Размер: 1.46 GB
Как cкачать? Как скачать Помпеи через торрент | qTorrent

% Раздел Тема Автор DL S | L
Документальные фильмы и телепередачи [ 1.75 GB ] Viasat History: Новые секреты Помпеи / Pompeii: New Secrets Revealed [2016 Документальный HDTVRip 1080p] Armstrong Скачать
1 | 0
Документальные фильмы и телепередачи [ 819 MB ] Viasat History: Новые секреты Помпеи / Pompeii: New Secrets Revealed [2016 Документальный HDTVRip] Armstrong Скачать
1 | 0
3D Видео (48-60 fps) [ 15.69 GB ] Помпеи / Pompeii [2014 Германия 3D BDRip 1080p / 60 FPSГоризонтальная анаморфная стереопара ] Tiberiumsun69 Скачать
1 | 0
Фильмы 2014 [DVDrip, WEB-DLRip, HDrip] [ 1.37 GB ] Помпеи / Pompeii [2014 Германия HDRip [ - / ] Ворон Скачать
1 | 0
Фильмы 2014 [DVDrip, WEB-DLRip, HDrip] [ 2.17 GB ] Помпеи / Pompeii [2014 BDRip ] coc900 Скачать
1 | 0
3D Фильмы [ 10.68 GB ] Помпеи 3D / Pompeii 3D [ 2014 Германия BDRip1080p ] DUB GEKADOL Скачать
1 | 0
Фильмы (Blu-ray, BD-Remux, HDDVD) [ 24.76 GB ] Помпеи / Pompeii [2014 BD-Remux ] Бумер Скачать
1 | 0
Отключить всю рекламу на сайте

26-05-2014 05:46 Помпеи Скачать торрент  

Великолепный фильм. Мне очень понравился.pb.wtf



27-05-2014 13:23 Помпеи Скачать торрент  

Спасибо очень хотел посмотреть егоpb.wtf



01-06-2014 18:41 Помпеи Скачать торрент  

Нука посмотрим сие чудо pb.wtf



01-06-2014 20:45 Помпеи Скачать торрент  

Andr3w писал(а):

Нука посмотрим сие чудо

Фильм посмотрел, все идеально, все прекрасно, но концовка печаль... спойлерить не будуpb.wtf



06-06-2014 14:24 Помпеи Скачать торрент  

ожидал что будет намного хуже.но так то на раз пойдёт.ради кубиков джони сноу можно глянуть!pb.wtf



09-06-2014 14:27 Помпеи Скачать торрент  

Отборное гаавно nopb.wtf



09-06-2014 19:25 Помпеи Скачать торрент  

Понравился, рекомендую. Хорошие спец эфекты и игра актеров, в моменты боя даже адреналинчик поднялся :)pb.wtf



14-06-2014 07:52 Помпеи Скачать торрент  

бредpb.wtf



14-06-2014 11:50 Помпеи Скачать торрент  

хороший фильмpb.wtf



16-06-2014 08:52 Помпеи Скачать торрент  

Не советую. Завлекают в этот фильм только сноу. Миф про Помпеи тут вообще вторичен.pb.wtf



24-06-2014 06:05 Помпеи Скачать торрент  

Концовка подвела, а так вполне понравился. Хотя бы раз стоит посмотреть!
Поменяйте эту ужасную картинку "ПОМПЕИ" :D страшная больно)
P.S не обложка фильма.pb.wtf



25-06-2014 10:03 Помпеи Скачать торрент  

Смотрел в кино в Омске когда был в командировке. Скачаю жене показать. Норм фильм. Автору спсpb.wtf



21-10-2014 19:06 Помпеи Скачать торрент  

норм фильм стоит глянуть!pb.wtf



    Дорогой пользователь! Огромная просьба, поблагодарите релизера, оцените раздачу и оставьте свои комментарий, если Вы скачали Помпеи через торрент бесплатно! Внесите свою лепту в развитие PiratBit!
    Комментировать посты могут только пользователи прошедшие не сложную регистрацию
    Показать сообщения:    

    Помпеи через торрент
    Скачать бесплатно Помпеи
    Помпеи скачать торрент
    Помпеи смотреть онлайн
    Cкачать фильм Помпеи бесплатно
    Помпеи скачать торрент в хорошем качестве
    Помпеи смотреть онлайн бесплатно в хорошем качестве


    Вы не можете начинать темы
    Вы не можете отвечать на сообщения
    Вы не можете редактировать свои сообщения
    Вы не можете удалять свои сообщения
    Вы не можете голосовать в опросах
    Вы не можете прикреплять файлы к сообщениям
    Вы можете скачивать файлы