1 сезон

1 сезон

iTunes

1

КиноПоиск HD

Кинопоиск HD

iTunes

13

1 сезон

RePack

30

Новинка

ВАЖНО

ИГРА 18+

pack

RePack

MK11
pack

Легкие деньги

RePack

jed

RePack

fifa19

RePack

RDR2

RePack

NEED FOR SPEED™ PAYBACK

4 сезон

9 сезон

Бесстыжие 9 сезон

Все сериалы

все сериалы на PB.wtf

RePack

FAR CRY 5
  
Magnet ссылка

История Антуана Фишера / Antwone Fisher (Дензел Вашингтон / Denzel Washington) [2002, США, драма, мелодрама, биография, BDRip,Профессиональный (многоголосый, закадровый) pb.wtf

История Антуана Фишера через торрент pb.wtf

Размер: 2.18 GB | Добавлен: 6 лет 11 мес. назад | Торрент скачан:135 раз
Скачать  

13-05-2014 16:32 История Антуана Фишера Скачать торрент  

История Антуана Фишера / Antwone Fisher
Год выпуска: 2002
Страна: США
Жанр: драма, мелодрама, биография
Продолжительность: 02:00:14
Перевод: Профессиональный (многоголосый, закадровый) + Оригинальная звуковая дорожка
Субтитры: Русские (2 вида), Английские (внешние srt*)

Режиссер: Дензел Вашингтон / Denzel Washington
В ролях: Дерек Люк (Antwone Quenton «Fish» Fisher), Дензел Вашингтон (Dr. Jerome Davenport), Джой Брайант (Cheryl Smolley), Кевин Коннолли (Slim), Салли Ричардсон-Уитфилд (Berta Davenport), Верни Уотсон-Джонсон (Aunt Annette), Виола Дэвис (Eva May), Малкольм Дэвид Келли (Antwone Fisher Age 7), Кори Ходжес (Antwone Fisher Age 14), Леонард Эрл Хауз (Pork Chop), Кенте Скотт (Kansas City), Райнолдо Гудинг (Grayson)

Описание: Антуан Фишер - охранник компании «Сони Пикчерс», который прославился, став известным сценаристом. Однако раньше он был моряком, списанным на берег из-за своего слишком агрессивного поведения.
Тут Фишер решает круто поменять свою жизнь и найти родителей, которые бросили его еще в младенчестве. Но в ходе поисков он начинает понимать, что его жизнь меняется отнюдь не в лучшую сторону.

kinopoisk.ru: 7.721 (1747)
imdb.com: 7.30 (22 241)
MPAA: PG-13 - Детям до 13 лет просмотр не желателен

Качество: BDRip
Формат: AVI
Видео кодек: XviD
Аудио кодек: AC3
Видео: XviD, 720x304 (2.35:1), 1815 kbps, 23,976 fps, 0,346 bpp
Аудио Ru: AC3 / 5.1 / 48 kHz / 384 kbps / 16 bit
Аудио En: AC3 / 5.1 / 48 kHz / 384 kbps / 16 bit

Релиз от:
Автор рипа: kingsize87

General
Complete name : C:\закачки\Istoriya.Antuana.Fishera.2002.DUAL.BDRip.XviD.AC3.-HQCLUB\Istoriya.Antuana.Fishera.2002.DUAL.BDRip.XviD.AC3.-HQCLUB.avi
Format : AVI
Format/Info : Audio Video Interleave
Format profile : OpenDML
File size : 2.18 GiB
Duration : 2h 0mn
Overall bit rate : 2 601 Kbps
Movie name : История Антуана Фишера / Antwone Fisher (2002) BDRip
Director : kingsize87
Writing application : VirtualDubMod 1.5.10.2 (build 2542/release)
Copyright : HQCLUB
Comment : 04.04.2012

Video
ID : 0
Format : MPEG-4 Visual
Format profile : Advanced Simple@L5
Format settings, BVOP : 1
Format settings, QPel : No
Format settings, GMC : No warppoints
Format settings, Matrix : Custom
Codec ID : XVID
Codec ID/Hint : XviD
Duration : 2h 0mn
Bit rate : 1 815 Kbps
Width : 720 pixels
Height : 304 pixels
Display aspect ratio : 2.35:1
Frame rate : 23.976 fps
Color space : YUV
Chroma subsampling : 4:2:0
Bit depth : 8 bits
Scan type : Progressive
Compression mode : Lossy
Bits/(Pixel*Frame) : 0.346
Stream size : 1.52 GiB (70%)
Writing library : XviD 64

Audio #1
ID : 1
Format : AC-3
Format/Info : Audio Coding 3
Mode extension : CM (complete main)
Codec ID : 2000
Duration : 2h 0mn
Bit rate mode : Constant
Bit rate : 384 Kbps
Channel(s) : 6 channels
Channel positions : Front: L C R, Side: L R, LFE
Sampling rate : 48.0 KHz
Bit depth : 16 bits
Compression mode : Lossy
Stream size : 330 MiB (15%)
Alignment : Split accross interleaves
Interleave, duration : 42 ms (1.00 video frame)
Interleave, preload duration : 500 ms

Audio #2
ID : 2
Format : AC-3
Format/Info : Audio Coding 3
Mode extension : CM (complete main)
Codec ID : 2000
Duration : 2h 0mn
Bit rate mode : Constant
Bit rate : 384 Kbps
Channel(s) : 6 channels
Channel positions : Front: L C R, Side: L R, LFE
Sampling rate : 48.0 KHz
Bit depth : 16 bits
Compression mode : Lossy
Stream size : 330 MiB (15%)
Alignment : Split accross interleaves
Interleave, duration : 42 ms (1.00 video frame)
Interleave, preload duration : 500 ms

pb.wtf



Скачать История Антуана Фишера через торрент http://i2.fastpic.ru/big/2010/0224/9c/de50632fab32500696d98fe8baafd39c.png Скачать фильм История Антуана Фишера через торрент бесплантно в хорошем качестве Описание: Антуан Фишер - охранник компании «Сони Пикчерс», который прославился, став известным сценаристом. Однако раньше он был моряком, ... 10 10 4
Торрент: Зарегистрирован [2014-05-13 16:32] · скачан: 135 раз
Статус: √ проверено
Размер: 2.18 GB
Как cкачать? Как скачать История Антуана Фишера через торрент | UTorrent

% Раздел Тема Автор DL S | L
Фильмы 2001-2005 [ 1.46 GB ] История Антуана Фишера / Antwone Fisher [2002 биография BDRip] [MVO] killermax2013 Скачать
1 | 0

28-11-2019 20:33  

Отключить всю рекламу на сайте

13-05-2014 17:43 История Антуана Фишера Скачать торрент  

Опять про негритенка))))pb.wtf



14-05-2014 16:32 История Антуана Фишера Скачать торрент  

Beamer писал(а):

Опять про негритенка))))

эм,всмысле "опять"?)pb.wtf



    Дорогой пользователь! Огромная просьба, поблагодарите релизера, оцените раздачу и оставьте свои комментарий, если Вы скачали История Антуана Фишера через торрент бесплатно! Внесите свою лепту в развитие PiratBit!
    Комментировать посты могут только пользователи прошедшие не сложную регистрацию
    Показать сообщения:    

    История Антуана Фишера через торрент
    Скачать бесплатно История Антуана Фишера
    История Антуана Фишера скачать торрент
    История Антуана Фишера смотреть онлайн
    Cкачать фильм История Антуана Фишера бесплатно
    История Антуана Фишера скачать торрент в хорошем качестве
    История Антуана Фишера смотреть онлайн бесплатно в хорошем качестве


    Вы не можете начинать темы
    Вы не можете отвечать на сообщения
    Вы не можете редактировать свои сообщения
    Вы не можете удалять свои сообщения
    Вы не можете голосовать в опросах
    Вы не можете прикреплять файлы к сообщениям
    Вы можете скачивать файлы