1 сезон

1 сезон

iTunes

1

КиноПоиск HD

Кинопоиск HD

iTunes

13

1 сезон

RePack

30

Новинка

ВАЖНО

ИГРА 18+

pack

RePack

MK11
pack

Легкие деньги

RePack

jed

RePack

fifa19

RePack

RDR2

RePack

NEED FOR SPEED™ PAYBACK

4 сезон

9 сезон

Бесстыжие 9 сезон

Все сериалы

все сериалы на PB.wtf

RePack

FAR CRY 5
  
Magnet ссылка

Мистификация / The Hoax (Лассе Халльстрём / Lasse Hallström) [2006, США, драма, комедия, BDRip,Профессиональный (полное дублирование) pb.wtf

Мистификация через торрент pb.wtf

Размер: 2.18 GB | Добавлен: 6 лет 10 мес. назад | Торрент скачан:107 раз
Скачать  

13-05-2014 16:42 Мистификация Скачать торрент  

Мистификация / The Hoax
Год выпуска: 2006
Страна: США
Жанр: драма, комедия
Продолжительность: 01:56:02
Перевод: Профессиональный (полное дублирование) + Оригинал (английский)
Субтитры: Нет

Режиссер: Лассе Халльстрём / Lasse Hallström
В ролях: Ричард Гир (Clifford Irving), Альфред Молина (Dick Suskind), Марша Гей Харден (Edith Irving), Хоуп Дэвис (Andrea Tate), Жюли Дельпи (Nina Van Pallandt), Стэнли Туччи (Shelton Fisher), Эли Уоллах (Noah Dietrich), Желько Иванек (Ralph Graves), Мэми Гаммер (Dana), Джон Ротмен (Puffy Man), Дэвид Аарон Бэйкер (Brad Silber), Джон Картер (Harold Mcgraw)

Описание: Не слишком удачливый писатель Клиффорд Ирвинг получил от ворот поворот в крупном американском издательстве, где он намеревался издать свой новый опус. Уязвленное самолюбие Клиффа подсказало ему, что нужно играть ва-банк, и он так и сделал: заявил о работе над биографией эксцентричного миллиардера-отшельника Говарда Хьюза, который вот уже много лет ни с кем не разговаривает и даже с прислугой общается посредством записок.
С этой минуты Клиффорд Ирвинг (при участии своего друга и помощника Дика Саскинда) начал не столько подниматься по лестнице славы на литературный олимп, сколько погружаться в бездну обмана и сплошных мистификаций, из которой невозможно было выбраться. Но с репутацией тщеславного графомана-щелкопера Ирвинг не собирался смиряться и решил идти до конца... И не изменил своего решения, даже когда запахло очень большой и очень грязной политикой...

kinopoisk.ru: 6.871 (1236)
imdb.com: 6.70 (13 259)
MPAA: R - Лицам до 17 лет обязательно присутствие взрослого

Качество: BDRip
Формат: AVI
Видео кодек: XviD
Аудио кодек: AC3
Видео: XviD, 704x384 (16:9), 1779 kbps, 23,976 fps, 0,275 bpp
Аудио Ru: AC3 / 5.1 / 48 kHz / 448 kbps / 16 bit
Аудио En: AC3 / 5.1 / 48 kHz / 448 kbps / 16 bit

Релиз от:
Автор рипа: yaroslaigor

General
Complete name : C:\закачки\Mistifikaciya.2006.DUAL.BDRip.XviD.AC3.-HQCLUB.avi
Format : AVI
Format/Info : Audio Video Interleave
Format profile : OpenDML
File size : 2.18 GiB
Duration : 1h 56mn
Overall bit rate : 2 693 Kbps
Movie name : Мистификация / The Hoax (2006) BDRip
Director : yaroslaigor
Genre : драма, комедия
Writing application : VirtualDubMod 1.5.10.2 (build 2540/release)

Comment : 05.03.2012

Video
ID : 0
Format : MPEG-4 Visual
Format profile : Advanced Simple@L5
Format settings, BVOP : 1
Format settings, QPel : No
Format settings, GMC : No warppoints
Format settings, Matrix : Custom
Codec ID : XVID
Codec ID/Hint : XviD
Duration : 1h 56mn
Bit rate : 1 780 Kbps
Width : 704 pixels
Height : 384 pixels
Display aspect ratio : 16:9
Frame rate : 23.976 fps
Color space : YUV
Chroma subsampling : 4:2:0
Bit depth : 8 bits
Scan type : Progressive
Compression mode : Lossy
Bits/(Pixel*Frame) : 0.275
Stream size : 1.44 GiB (66%)
Writing library : XviD 72

Audio #1
ID : 1
Format : AC-3
Format/Info : Audio Coding 3
Mode extension : CM (complete main)
Codec ID : 2000
Duration : 1h 56mn
Bit rate mode : Constant
Bit rate : 448 Kbps
Channel(s) : 6 channels
Channel positions : Front: L C R, Side: L R, LFE
Sampling rate : 48.0 KHz
Bit depth : 16 bits
Compression mode : Lossy
Stream size : 372 MiB (17%)
Alignment : Split accross interleaves
Interleave, duration : 42 ms (1.00 video frame)
Interleave, preload duration : 500 ms

Audio #2
ID : 2
Format : AC-3
Format/Info : Audio Coding 3
Mode extension : CM (complete main)
Codec ID : 2000
Duration : 1h 55mn
Bit rate mode : Constant
Bit rate : 448 Kbps
Channel(s) : 6 channels
Channel positions : Front: L C R, Side: L R, LFE
Sampling rate : 48.0 KHz
Bit depth : 16 bits
Compression mode : Lossy
Stream size : 371 MiB (17%)
Alignment : Split accross interleaves
Interleave, duration : 42 ms (1.00 video frame)
Interleave, preload duration : 500 ms

pb.wtf



Скачать Мистификация через торрент http://s017.radikal.ru/i400/1305/96/6450fe31ccb0.jpg Скачать фильм Мистификация через торрент бесплантно в хорошем качестве Описание: Не слишком удачливый писатель Клиффорд Ирвинг получил от ворот поворот в крупном американском издательстве, где он намеревался ... 10 10 2
Торрент: Зарегистрирован [2014-05-13 16:42] · скачан: 107 раз
Статус: √ проверено
Размер: 2.18 GB
Как cкачать? Как скачать Мистификация через торрент | UTorrent

28-11-2019 20:33  

Отключить всю рекламу на сайте

13-05-2014 18:56 Мистификация Скачать торрент  

А где сэмпл? профессиональный дубляж тоже какистый бываетpb.wtf



14-05-2014 16:31 Мистификация Скачать торрент  

shadow912 писал(а):

А где сэмпл? профессиональный дубляж тоже какистый бывает

сэмпл специально для тебяpb.wtf



    Дорогой пользователь! Огромная просьба, поблагодарите релизера, оцените раздачу и оставьте свои комментарий, если Вы скачали Мистификация через торрент бесплатно! Внесите свою лепту в развитие PiratBit!
    Комментировать посты могут только пользователи прошедшие не сложную регистрацию
    Показать сообщения:    

    Мистификация через торрент
    Скачать бесплатно Мистификация
    Мистификация скачать торрент
    Мистификация смотреть онлайн
    Cкачать фильм Мистификация бесплатно
    Мистификация скачать торрент в хорошем качестве
    Мистификация смотреть онлайн бесплатно в хорошем качестве


    Вы не можете начинать темы
    Вы не можете отвечать на сообщения
    Вы не можете редактировать свои сообщения
    Вы не можете удалять свои сообщения
    Вы не можете голосовать в опросах
    Вы не можете прикреплять файлы к сообщениям
    Вы можете скачивать файлы