новый адрес пиратбит piratbit
Мега распродажа FORZA HORIZON 4 ULTIMATE+ВСЕ DLC+ОНЛАЙН всего за 499р. 349 руб. (супер цена). Внимание количество ограничено!!!

iTunes

1+1

iTunes

мы

iTunes

1

iTunes

Чернобыль

iTunes

Ральф против интернета

Лицензия

ПШазам

Лицензия

Игра престолов

Лицензия

30
pack

ВАЖНО

!!Акция!!

Alien_RageХит недели

RePack

Resident Evil 21

ИГРА 18+

pack

RePack

Metro:Exodus

!!Акция!!

Alien_Rage

RePack

fifa19

RePack

Assassins Creed: Odyssey

RePack

NEED FOR SPEED™ PAYBACK

3 сезон

9 сезон

Бесстыжие 9 сезон

Все сериалы

все сериалы на PB.wtf

RePack

FAR CRY 5
Ребята, катастрофически не хватает 1900р. для оплаты серверов за Октябрь (всвязи с блокировками трафик упал в 3 раза), 1-2р., выручайте.
  

24 часа: Проживи еще один день / 24: Live Another Day / Сезон: 9 / Серии: 1-12 из 12 (Джон Кассар, Адам Кэйн, Омар Мадха) [2014, США, боевик, триллер, драма, WEB-DL 720p] MVO [NewStudio & NovaFilm] + Original pb.wtf

24 часа: Проживи еще один день через торрент pb.wtf

Размер: 18.38 GB | Добавлен: 5 лет 3 мес. назад | Торрент скачан:118 раз
Скачать  

13-05-2014 21:16 24 часа: Проживи еще один день Скачать торрент  

24 часа: Проживи еще один день / 24: Live Another Day
«A New Day. A New Beginning. A New Bauer.»
Год выпуска: 2014
Страна: США
Жанр: боевик, триллер, драма, детектив
Продолжительность: 00:44:21
Перевод:
|Профессиональный (многоголосый, закадровый) NovaFilm & NewStudio|

Режиссер: Джон Кассар / Jon Cassar, Адам Кэйн / Adam Kane, Омар Мадха / Omar Madha
В ролях: Кифер Сазерленд (Jack Bauer), Гбенга Акиннагбе (Erik Ritter), Бенджамин Брэтт (Steve Navarro), Уильям Дивэйн (President James Heller), Тейт Донован (Mark Boudreau), Мишель Фэйрли (Margot Al-Harazi), Джиллз Мэттхи (Jordan Reed), Мэри Линн Райскаб (Chloe O'Brian), Ким Рэйвер (Audrey Raines), Ивонн Страховски (Kate Morgan), Майкл Уинкотт (Adrian Cross), Бранко Томович (Belcheck)
Описание:
Прошло 4 года после событий восьмого дня оригинального сериала «24 часа». Действия разворачиваются в Лондоне, где готовится страшный теракт. Джек находится в бегах, его преследует ЦРУ, старые друзья теперь не на его стороне, но он готов пойти на все ради предотвращения теракта, который может изменить мир навсегда...

Рейтинг

Качество: WEB-DL 720p
Формат: MKV
Видео кодек: AVC
Аудио кодек: AC3
Видео: AVC, 1280x720 (16:9), 4321 kbps, 23,976 fps, 0,196 bpp
Аудио №1: русский / AC3 / 5.1 / 48 kHz / 384 kbps / 16 bit ||
Аудио №2: английский / AC3 / 5.1 / 48 kHz / 384 kbps / 16 bit

Оформление: Messa-fan

Перевод: Madchester
Редактор: Руслан Графт
Постер: Андрей Шапал
Текст читали: Василий Дахненко, Петр "Гланц" Иващенко, Александр Дасевич, Елена Шульман.

Код:

P.S. Джека Бауэра озвучивает официальный голос ДУБЛЯЖА.

Код:

General
Unique ID                                : 216580956740223014029978952976149978034 (0xA2EFF999675275EFBB7245B48D4F1BB2)
Complete name                            : E:\Video\24.Live.Another.Day.s09e01.webdl.720p.rus.newstudio.tv.novafilm.tv.mkv
Format                                   : Matroska
Format version                           : Version 4 / Version 2
File size                                : 1.61 GiB
Duration                                 : 44mn 21s
Overall bit rate                         : 5 193 Kbps
Encoded date                             : UTC 2014-05-13 19:42:31
Writing application                      : mkvmerge v6.9.1 ('Blue Panther') 64bit built on Apr 18 2014 18:23:38
Writing library                          : libebml v1.3.0 + libmatroska v1.4.1

Video
ID                                       : 1
Format                                   : AVC
Format/Info                              : Advanced Video Codec
Format profile                           : High@L3.1
Format settings, CABAC                   : No
Format settings, ReFrames                : 2 frames
Format settings, GOP                     : N=1
Codec ID                                 : V_MPEG4/ISO/AVC
Duration                                 : 44mn 20s
Bit rate                                 : 4 321 Kbps
Width                                    : 1 280 pixels
Height                                   : 720 pixels
Display aspect ratio                     : 16:9
Frame rate                               : 23.976 fps
Color space                              : YUV
Chroma subsampling                       : 4:2:0
Bit depth                                : 8 bits
Scan type                                : Progressive
Bits/(Pixel*Frame)                       : 0.196
Stream size                              : 1.34 GiB (83%)
Language                                 : English
Default                                  : Yes
Forced                                   : No
Color primaries                          : BT.709-5, BT.1361, IEC 61966-2-4, SMPTE RP177
Transfer characteristics                 : BT.709-5, BT.1361
Matrix coefficients                      : BT.709-5, BT.1361, IEC 61966-2-4 709, SMPTE RP177

Audio #1
ID                                       : 2
Format                                   : AC-3
Format/Info                              : Audio Coding 3
Mode extension                           : CM (complete main)
Codec ID                                 : A_AC3
Duration                                 : 44mn 21s
Bit rate mode                            : Constant
Bit rate                                 : 384 Kbps
Channel(s)                               : 6 channels
Channel positions                        : Front: L C R, Side: L R, LFE
Sampling rate                            : 48.0 KHz
Bit depth                                : 16 bits
Compression mode                         : Lossy
Stream size                              : 122 MiB (7%)
Language                                 : Russian
Default                                  : Yes
Forced                                   : No

Audio #2
ID                                       : 3
Format                                   : AC-3
Format/Info                              : Audio Coding 3
Mode extension                           : CM (complete main)
Codec ID                                 : A_AC3
Duration                                 : 44mn 21s
Bit rate mode                            : Constant
Bit rate                                 : 384 Kbps
Channel(s)                               : 6 channels
Channel positions                        : Front: L C R, Side: L R, LFE
Sampling rate                            : 48.0 KHz
Bit depth                                : 16 bits
Compression mode                         : Lossy
Delay relative to video                  : 20ms
Stream size                              : 122 MiB (7%)
Language                                 : English
Default                                  : No
Forced                                   : No




Внимание! Раздача ведётся путём добавления новых серий; при каждом добавлении создётся новый торрент. Чтобы начать докачку новой серии, пользователям необходимо сделать следующее:
(1) остановить скачивание,
(2) удалить старый торрент у себя из клиента (старые серии удалять не надо),
(3) скачать новый торрент и запустить его у себя в клиенте вместо старого, при этом указать клиенту путь в старую папку куда и должно происходить скачивание новых серий.
Ваш клиент при этом должен произвести хеширование (проверку) старой папки (если не производит сам - помогите ему сделать это), и будет докачивать только те серии которых у вас ещё нет. Старые серии при этом не удаляются, а продолжают раздаваться!
Eсли вы уже удалили старые серии, то предотвратить повторную закачку старых серий можно, отжав галочку в соответсвующих местах при запуске нового торрента. По возможности, желательно не удалять старые серии как можно дольше чтобы релизёр не столько продолжал раздавать старые серии, а смог сконцентрироваться на новых.

Заменена 12 серия на proper!
Финал сезона!

pb.wtf



Скачать 24 часа: Проживи еще один день через торрент http://pic.kartinco.top/images/6/ki413.jpg Скачать фильм 24 часа: Проживи еще один день через торрент бесплантно в хорошем качестве Описание: Прошло 4 года после событий восьмого дня оригинального сериала «24 часа». Действия разворачиваются в Лондоне, где готовится ... 9.3 10 18
Info! Золотая раздача, скачанное не засчитывается.
Торрент: Зарегистрирован [2014-07-22 09:32] · скачан: 118 раз
Статус: √ проверено
Размер: 18.38 GB
Как cкачать? Как скачать 24 часа: Проживи еще один день через торрент | qTorrent



Последний раз редактировалось: Messa-fan (2014-07-22 09:32), всего редактировалось 10 раз(а)


>> Регистрируемся здесь <<






Отзывы и комментарии о схеме читаем и пишем здесь: ---> Отзывы и комментарии о схеме

Новые благодарочки в телеграм довольных пользователей:
скриншот   скриншот   скриншот   скриншот   скриншот

20-05-2014 18:09 24 часа: Проживи еще один день Скачать торрент  


Добавлена 3 серия!

pb.wtf



27-05-2014 20:11 24 часа: Проживи еще один день Скачать торрент  


Добавлена 4 серия!

pb.wtf



04-06-2014 20:48 24 часа: Проживи еще один день Скачать торрент  


Добавлена 5 серия!

pb.wtf



13-06-2014 10:46 24 часа: Проживи еще один день Скачать торрент  


Добавлена 6 серия!

pb.wtf



14-06-2014 19:41 24 часа: Проживи еще один день Скачать торрент  

куда подевались первые 8 сезонов :pleasantry: ? рейтинги что то космические вообще у сериала этогоpb.wtf



17-06-2014 13:18 24 часа: Проживи еще один день Скачать торрент  


Добавлена 7 серия!

pb.wtf



23-06-2014 22:20 24 часа: Проживи еще один день Скачать торрент  

А сезоны зависят друг от друга?pb.wtf



03-07-2014 18:35 24 часа: Проживи еще один день Скачать торрент  


Добавлены 8 и 9 серии!

pb.wtf



09-07-2014 20:24 24 часа: Проживи еще один день Скачать торрент  


Добавлена 10 серия!

pb.wtf



17-07-2014 14:52 24 часа: Проживи еще один день Скачать торрент  


Добавлена 11 серия!

pb.wtf



21-07-2014 20:20 24 часа: Проживи еще один день Скачать торрент  


Добавлена 12 серия!
Финал сезона!

pb.wtf



22-07-2014 09:33 24 часа: Проживи еще один день Скачать торрент  


Заменена 12 серия на proper!
Финал сезона!

pb.wtf



    Дорогой пользователь! Огромная просьба, поблагодарите релизера, оцените раздачу и оставьте свои комментарий, если Вы скачали 24 часа: Проживи еще один день через торрент бесплатно! Внесите свою лепту в развитие PiratBit!
    Комментировать посты могут только пользователи прошедшие не сложную регистрацию
    Показать сообщения:    

    24 часа: Проживи еще один день через торрент
    Скачать бесплатно 24 часа: Проживи еще один день
    24 часа: Проживи еще один день скачать торрент
    24 часа: Проживи еще один день смотреть онлайн
    Cкачать фильм 24 часа: Проживи еще один день бесплатно
    24 часа: Проживи еще один день скачать торрент в хорошем качестве
    24 часа: Проживи еще один день смотреть онлайн бесплатно в хорошем качестве


    Вы не можете начинать темы
    Вы не можете отвечать на сообщения
    Вы не можете редактировать свои сообщения
    Вы не можете удалять свои сообщения
    Вы не можете голосовать в опросах
    Вы не можете прикреплять файлы к сообщениям
    Вы можете скачивать файлы