2 сезон

iTunes

MVO

1

2 сезон

iTunes

iTunes

1 сезон

RePack

30

Новинка

ВАЖНО

ИГРА 18+

pack

RePack

MK11
pack

Легкие деньги

RePack

jed

RePack

fifa19

RePack

RDR2

RePack

NEED FOR SPEED™ PAYBACK

4 сезон

9 сезон

Бесстыжие 9 сезон

Все сериалы

все сериалы на PB.wtf

RePack

FAR CRY 5

Anonymous, добрый день, мы не успеваем собрать деньги на оплату серверов за декабрь и январь, помогите нам пожалуйста в это трудное время. В качестве благодарности мы отключим Вам всю рекламу на сайте (укажите свой ник в строку Ваше имя)!

×
  
Magnet ссылка

Отель романтических свиданий / Hôtel Normandy (Шарль Немес / Charles Nemes) [2013, Франция, мелодрама, комедия, HDRip,Профессиональный (многоголосый, закадровый)[Лицензия] pb.wtf

Отель романтических свиданий через торрент pb.wtf

Размер: 1.46 GB | Добавлен: 6 лет 8 мес. назад | Торрент скачан:182 раза
Скачать  

14-05-2014 07:52 Отель романтических свиданий Скачать торрент  


Отель романтических свиданий / Hôtel Normandy
«Всё началось внезапно»

Год выпуска: 2013
Страна:Франция
Жанр:мелодрама, комедия
Продолжительность:01:27:21
Перевод:Профессиональный (многоголосый, закадровый)[Лицензия]
Субтитры: Нет
Режиссер:Шарль Немес / Charles Nemes

  • В ролях:

    Эрик Элмоснино (Jacques Delboise), Элена Ногуэрра (Alice Lecorre), Эри Абиттан (Yvan Carlotti), Фредерик Бель (Isabelle de Castlejane), Энн Жирар (Pénélope Choisy), Аннелиз Эм (Hélène), Алис Белаиди (Sonia), Жан-Мари Ламур (Benoît Giraud), Седрик Бен Абдулла (David Carlotti), Филипп Сутан (L'homme aux frites), Айван Дотен (Le premier réceptionniste), Филипп Ландулси (Le deuxième réceptionniste)

  • Описание:
    Элис молода, красива, занимается любимым делом. Если бы она не потеряла мужа несколько лет назад, то можно было бы сказать, что она просто эталон счастливой женщины. Ближайшие подруги полны решимости выдать ее замуж. Именно для этого они отправляют Элис в самый романтичный отель на свете - легендарную «Нормандию» в Довиле. Уж там-то она точно кого-нибудь встретит!

  • Мировая премьера:8 мая 2013


      Качество: HDRip
      Формат: AVI
      Видео кодек: XviD
      Аудио кодек:AC3
      Видео: XviD, 720x304 (2.35:1), 1993 kbps, 24 fps, 0,379 bpp
      Аудио: AC3 / 5.1 / 48 kHz / 384 kbps / 16 bit


    Код:

    General
    Complete name                            : D:\Торенты\Hotel.Normandy.2013.HDRip.avi
    Format                                   : AVI
    Format/Info                              : Audio Video Interleave
    File size                                : 1.46 GiB
    Duration                                 : 1h 27mn
    Overall bit rate                         : 2 386 Kbps
    Writing application                      : VirtualDubMod 1.5.10.2 (build 2540/release)
    Writing library                          : VirtualDubMod build 2540/release

    Video
    ID                                       : 0
    Format                                   : MPEG-4 Visual
    Format profile                           : Advanced Simple@L5
    Format settings, BVOP                    : 2
    Format settings, QPel                    : No
    Format settings, GMC                     : No warppoints
    Format settings, Matrix                  : Custom
    Codec ID                                 : XVID
    Codec ID/Hint                            : XviD
    Duration                                 : 1h 27mn
    Bit rate                                 : 1 993 Kbps
    Width                                    : 720 pixels
    Height                                   : 304 pixels
    Display aspect ratio                     : 2.35:1
    Frame rate                               : 24.000 fps
    Color space                              : YUV
    Chroma subsampling                       : 4:2:0
    Bit depth                                : 8 bits
    Scan type                                : Progressive
    Compression mode                         : Lossy
    Bits/(Pixel*Frame)                       : 0.379
    Stream size                              : 1.22 GiB (84%)
    Writing library                          : XviD 1.2.1 (UTC 2008-12-04)

    Audio
    ID                                       : 1
    Format                                   : AC-3
    Format/Info                              : Audio Coding 3
    Mode extension                           : CM (complete main)
    Codec ID                                 : 2000
    Duration                                 : 1h 27mn
    Bit rate mode                            : Constant
    Bit rate                                 : 384 Kbps
    Channel(s)                               : 6 channels
    Channel positions                        : Front: L C R, Side: L R, LFE
    Sampling rate                            : 48.0 KHz
    Bit depth                                : 16 bits
    Compression mode                         : Lossy
    Stream size                              : 240 MiB (16%)
    Alignment                                : Split accross interleaves
    Interleave, duration                     : 42 ms (1.00 video frame)
    Interleave, preload duration             : 500 ms

    Скриншоты:

    Каталог Новинок (Фильмы-трейлеры, Игры, Сериалы, Мультфильмы)

    © Оформление by Raven
    pb.wtf



  • Скачать Отель романтических свиданий через торрент http://pic.kartinco.top/images/6/stazu.jpg Скачать фильм Отель романтических свиданий через торрент бесплантно в хорошем качестве Описание:Элис молода, красива, занимается любимым делом. Если бы она не потеряла мужа несколько лет назад, то можно было бы сказать, что ... 9.4 10 9
    Торрент: Зарегистрирован [2014-05-14 07:52] · скачан: 182 раз
    Статус: √ проверено
    Размер: 1.46 GB
    Как cкачать? Как скачать Отель романтических свиданий через торрент | UTorrent

    28-11-2019 20:33  

    Отключить всю рекламу на сайте

      Дорогой пользователь! Огромная просьба, поблагодарите релизера, оцените раздачу и оставьте свои комментарий, если Вы скачали Отель романтических свиданий через торрент бесплатно! Внесите свою лепту в развитие PiratBit!
      Комментировать посты могут только пользователи прошедшие не сложную регистрацию
      Показать сообщения:    

      Отель романтических свиданий через торрент
      Скачать бесплатно Отель романтических свиданий
      Отель романтических свиданий скачать торрент
      Отель романтических свиданий смотреть онлайн
      Cкачать фильм Отель романтических свиданий бесплатно
      Отель романтических свиданий скачать торрент в хорошем качестве
      Отель романтических свиданий смотреть онлайн бесплатно в хорошем качестве


      Вы не можете начинать темы
      Вы не можете отвечать на сообщения
      Вы не можете редактировать свои сообщения
      Вы не можете удалять свои сообщения
      Вы не можете голосовать в опросах
      Вы не можете прикреплять файлы к сообщениям
      Вы можете скачивать файлы