Ссылка на приватное зеркало нашего сайта всего за 1$. Внимание количество ограничено!!!

2 сезон

iTunes

1 сезон

1

2 сезон

2 сезон

iTunes

1 сезон

RePack

30

Ultimate

ВАЖНО

ИГРА 18+

pack

RePack

MK11
pack

Забери бонус

RePack

jed

!!Акция!!

Alien_Rage

RePack

fifa19

RePack

Assassins Creed: Odyssey

RePack

NEED FOR SPEED™ PAYBACK

4 сезон

9 сезон

Бесстыжие 9 сезон

Все сериалы

все сериалы на PB.wtf

RePack

FAR CRY 5
  

Новости. 11.00 (Эфир от 14.05.2014) (Первый Канал HD) [2014 г., Информационная программа, HDTV 1080i, Оригинал] pb.wtf

Новости. 11.00 через торрент pb.wtf

Размер: 1.33 GB | Добавлен: 6 лет 6 мес. назад | Торрент скачан:17 раз
Скачать  

14-05-2014 09:13 Новости. 11.00 Скачать торрент  

Новости. 11.00
Год выпуска: 2014
Страна: Россия
Жанр: Информационная программа
Перевод: Оригинал

Режиссер: Первый Канал HD

В ролях: Валерия Кораблева

Описание: «Вре́мя» — информационная программа Первого канала. Выходит в эфир в 11:00 с хронометражем в 15 минут в праздники и выходные дни.

Качество: HDTV 1080i
Формат: TS
Видео кодек: H.264
Аудио кодек: AC3
Видео: AVC, 1920x1080 (16:9), 25.000 fps, 11.0 Mbps (0.212 bit/pixel)a
Аудио#1: AC-3, 48.0 KHz, 6 ch, 384 Kbps, CBR (Russian)
Общее
Идентификатор : 1 (0x1)
Полное имя : D:\Рипы выкладка [Deadmauvlad]\Рипы готовые\Новости_11_00_1KANAL_HD.ts
Формат : MPEG-TS
Размер файла : 1,33 Гбайт
Продолжительность : 15 м.
Режим общего битрейта : Переменный
Общий поток : 12,0 Мбит/сек
Максимальный общий битрейт : 35,5 Мбит/сек

Видео
Идентификатор : 4113 (0x1011)
Идентификатор меню : 1 (0x1)
Формат : AVC
Формат/Информация : Advanced Video Codec
Профиль формата : High@L4.0
Параметр CABAC формата : Да
Параметр ReFrames формата : 3 кадра
Идентификатор кодека : 27
Продолжительность : 15 м.
Вид битрейта : Переменный
Битрейт : 11,0 Мбит/сек
Максимальный битрейт : 40,0 Мбит/сек
Ширина : 1920 пикселей
Высота : 1080 пикселей
Соотношение сторон : 16:9
Частота кадров : 25,000 кадров/сек
Стандарт вещания : Component
Цветовое пространство : YUV
Субдискретизация насыщенности : 4:2:0
Битовая глубина : 8 бит
Тип развёртки : Чересстрочная
Порядок развёртки : Верхнее поле первое
Бит/(Пиксели*Кадры) : 0.212
Размер потока : 1,22 Гбайт (92%)
Основные цвета : BT.709
Характеристики трансфера : BT.709
Коэффициенты матрицы : BT.709

Аудио
Идентификатор : 4352 (0x1100)
Идентификатор меню : 1 (0x1)
Формат : AC-3
Формат/Информация : Audio Coding 3
Расширение режима : CM (complete main)
Параметр Endianness формата : Big
Идентификатор кодека : 129
Продолжительность : 15 м.
Вид битрейта : Постоянный
Битрейт : 384 Кбит/сек
Каналы : 6 каналов
Расположение каналов : Front: L C R, Side: L R, LFE
Частота : 48,0 КГц
Битовая глубина : 16 бит
Метод сжатия : С потерями
Задержка видео : 23 мс.
Размер потока : 43,6 Мбайт (3%)
Язык : Russian[/code]
Релиз от: Deadmauvlad
скриншот   скриншот   скриншот  
pb.wtf



Скачать Новости. 11.00 через торрент http://pic.kartinco.top/images/6/tyk8r.jpg Скачать фильм Новости. 11.00 через торрент бесплантно в хорошем качестве Описание: «Вре́мя» — информационная программа Первого канала. Выходит в эфир в 11:00 с хронометражем в 15 минут в праздники и выходные ... 5.2 10 11
Торрент: Зарегистрирован [2014-05-14 09:13] · скачан: 17 раз
Статус: √ проверено
Размер: 1.33 GB
Как cкачать? Как скачать Новости. 11.00 через торрент | qTorrent



Последний раз редактировалось: Se7ven95 (2014-05-15 12:24), всего редактировалось 1 раз

28-11-2019 20:33  

Отключить всю рекламу на сайте

15-05-2014 08:57 Новости. 11.00 Скачать торрент  

Мне тут пришло сообщение

Цитата:

ща как закроют твою раздачу, да пред впают. заорут - ЭТО ПОЛИТ ПРОПАГАНДА !!! ТЫ РАБОТАЕШЬ НА РАЗВАЛ УКРАИНЫ !!!
грустная шутка)

нет я выкладываю просто так без каких либо пропаганд !!!!
я не работаю на развал украины !!!!pb.wtf



15-05-2014 12:03 Новости. 11.00 Скачать торрент  

Код:

Качество: HDTV 1080p

Код:

HDTV 1080i

Цитата:

Новости. 11.00 (Первый Канал HD) [2014 г., Информационная программа, HDTV 1080p, Оригинал]

стоит думаю дату выхода добавить в формате дд.мм.ггггpb.wtf



    Дорогой пользователь! Огромная просьба, поблагодарите релизера, оцените раздачу и оставьте свои комментарий, если Вы скачали Новости. 11.00 через торрент бесплатно! Внесите свою лепту в развитие PiratBit!
    Комментировать посты могут только пользователи прошедшие не сложную регистрацию
    Показать сообщения:    

    Новости. 11.00 через торрент
    Скачать бесплатно Новости. 11.00
    Новости. 11.00 скачать торрент
    Новости. 11.00 смотреть онлайн
    Cкачать фильм Новости. 11.00 бесплатно
    Новости. 11.00 скачать торрент в хорошем качестве
    Новости. 11.00 смотреть онлайн бесплатно в хорошем качестве


    Вы не можете начинать темы
    Вы не можете отвечать на сообщения
    Вы не можете редактировать свои сообщения
    Вы не можете удалять свои сообщения
    Вы не можете голосовать в опросах
    Вы не можете прикреплять файлы к сообщениям
    Вы можете скачивать файлы