2 сезон

iTunes

MVO

1

2 сезон

iTunes

iTunes

1 сезон

RePack

30

Новинка

ВАЖНО

ИГРА 18+

pack

RePack

MK11
pack

Легкие деньги

RePack

jed

RePack

fifa19

RePack

RDR2

RePack

NEED FOR SPEED™ PAYBACK

4 сезон

9 сезон

Бесстыжие 9 сезон

Все сериалы

все сериалы на PB.wtf

RePack

FAR CRY 5

Anonymous, добрый день, мы не успеваем собрать деньги на оплату серверов за декабрь и январь, помогите нам пожалуйста в это трудное время. В качестве благодарности мы отключим Вам всю рекламу на сайте (укажите свой ник в строку Ваше имя)!

×
  
Magnet ссылка

Король обезьян / The Monkey King: Wreaking Havoc in Heavenly Palace (Поу-Сои Чинг) [2014 г., боевик, приключения, семейный, фэнтези, BDRip 1080p, Любительский одноголосый] Анаглиф (Дюбуа) pb.wtf

Король обезьян через торрент pb.wtf

Размер: 11.42 GB | Добавлен: 6 лет 8 мес. назад | Торрент скачан:82 раза
Скачать  

14-05-2014 11:09 Король обезьян Скачать торрент  

Король обезьян / The Monkey King: Wreaking Havoc in Heavenly Palace
Год выпуска: 2014
Страна: Китай, Гонконг, США
Жанр: боевик, приключения, семейный, фэнтези
Продолжительность: 01:59:16
Перевод: Любительский одноголосый - Виктор Береговых

Режиссер: Поу-Сои Чинг
Продюссер: Дэвид Эбнер, Кларенс Фок Ииу-леунг, Роберт Харрис
Сценарий: Кам-Юэнь Зето, Эдмонд Вонг

Бюджет: $100 000 000
Премьера в мире: 30 января 2014



В ролях: Донни Йен, Чоу Юнь-Фат, Аарон Квок, Итянь Хай, Питер Хо, Джо Чэнь, Ся Цзытун, Келли Чен, Сиу-Фай Чунг, Кэлвин Чэн Ка-Синь

Описание: Сюжет фильма переносит нас в удивительный мир, в котором царит магия и волшебство. Он населен людьми, демонами и богами, поддерживающими в нем баланс сил. Но однажды между двумя царствами началась страшная война, в результате которой мир погрузился в хаос. За нападение на священный небесный дворец царство демонов понесло суровое наказание и подверглось заточению на пламенной горе. Богиня Нуа решила пожертвовать собой ради мира и превратила свое тело в тысячи кристаллов, из которых были созданы южные небесные врата, защищающие замок от нападения демонов. От одного из этих кристаллов на свет появился детеныш, внешне похожий на обезьяну. Ему было предначертано вернуть человечеству счастливую жизнь, но чтобы стать королем обезьян, он должен будет пройти множество испытаний...

Доп. информация: Формат 3D: Анаглиф (Дюбуа)



Качество: BDRip 1080p
Формат: MKV
Видео кодек: H.264
Аудио кодек: AC3
Видео: x264, 1920 x 1080 (16:9), 12,8 Мбит/сек, 23,976 fps, ( 0.257 bpp)
Аудио#1: Русский / AC3 / 48 KHz / 5.1 ch / 640 Kbps ( VO - Виктор Береговых )



скриншот   скриншот   скриншот   скриншот   скриншот   скриншот  
Общее
Уникальный идентификатор : 204257873158323171403362067741096627788 (0x99AAA2AB7DB863F6A33731B4FEFD4E4C)
Полное имя : D: The.Monkey.King(2014)3D(Anaglyph_Dubois).mkv
Формат : Matroska
Версия формата : Version 4 / Version 2
Размер файла : 11,4 Гбайт
Продолжительность : 1 ч. 59 м.
Общий поток : 13,7 Мбит/сек
Название фильма : Король обезьян / Xi you ji: Da nao tian gong / The Monkey King (2014) 3D (Anaglyph_Dubois)(Crop)
Дата кодирования : UTC 2014-05-13 16:53:18
Программа кодирования : mkvmerge v6.2.0 ('Promised Land') built on Apr 28 2013 12:22:01
Библиотека кодирования : libebml v1.3.0 + libmatroska v1.4.0

Видео
Идентификатор : 1
Формат : AVC
Формат/Информация : Advanced Video Codec
Профиль формата : High@L4.1
MultiView_Count : 2
MultiView_Layout : Anaglyph (cyan/red)
Параметр CABAC формата : Да
Параметр ReFrames формата : 4 кадра
Идентификатор кодека : V_MPEG4/ISO/AVC
Продолжительность : 1 ч. 59 м.
Битрейт : 12,8 Мбит/сек
Ширина : 1920 пикселей
Высота : 1080 пикселей
Соотношение сторон : 16:9
Режим частоты кадров : Постоянный
Частота кадров : 23,976 кадра/сек
Цветовое пространство : YUV
Субдискретизация насыщенности : 4:2:0
Битовая глубина : 8 бит
Тип развёртки : Прогрессивная
Бит/(Пиксели*Кадры) : 0.257
Размер потока : 10,7 Гбайт (93%)
Заголовок : The Monkey King (2014) 3D (Anaglyph_Dubois)(Crop).mkv
Библиотека кодирования : x264 core 130 r2273 b3065e6
Настройки программы : cabac=1 / ref=4 / deblock=1:-3:-3 / analyse=0x3:0x113 / me=umh / subme=9 / psy=1 / psy_rd=1.00:0.15 / mixed_ref=1 / me_range=32 / chroma_me=1 / trellis=1 / 8x8dct=1 / cqm=0 / deadzone=21,11 / fast_pskip=1 / chroma_qp_offset=-3 / threads=3 / lookahead_threads=1 / sliced_threads=0 / nr=0 / decimate=1 / interlaced=0 / bluray_compat=0 / constrained_intra=0 / bframes=4 / b_pyramid=2 / b_adapt=2 / b_bias=0 / direct=3 / weightb=1 / open_gop=0 / weightp=2 / keyint=250 / keyint_min=23 / scenecut=40 / intra_refresh=0 / rc_lookahead=50 / rc=crf / mbtree=1 / crf=18.0 / qcomp=0.60 / qpmin=0 / qpmax=69 / qpstep=4 / ip_ratio=1.40 / aq=1:1.00
Язык : Chinese
Default : Да
Forced : Нет

Аудио
Идентификатор : 2
Формат : AC-3
Формат/Информация : Audio Coding 3
Расширение режима : CM (complete main)
Параметр Endianness формата : Big
Идентификатор кодека : A_AC3
Продолжительность : 1 ч. 59 м.
Вид битрейта : Постоянный
Битрейт : 640 Кбит/сек
Каналы : 6 каналов
Расположение каналов : Front: L C R, Side: L R, LFE
Частота : 48,0 КГц
Битовая глубина : 16 бит
Метод сжатия : С потерями
Размер потока : 546 Мбайт (5%)
Заголовок : VO - Виктор Береговых (микс в 5.1 - Ash61)
Язык : Russian
Default : Да
Forced : Нет

pb.wtf



Скачать Король обезьян через торрент http://i62.fastpic.ru/big/2014/0514/85/10eaef12a3b7b46cb349d955261b8e85.gif Скачать фильм Король обезьян через торрент бесплантно в хорошем качестве Описание: Сюжет фильма переносит нас в удивительный мир, в котором царит магия и волшебство. Он населен людьми, демонами и богами, ... 10 10 4
Info! Золотая раздача, скачанное не засчитывается.
Торрент: Зарегистрирован [2014-05-14 11:09] · скачан: 82 раз
Статус: √ проверено
Размер: 11.42 GB
Как cкачать? Как скачать Король обезьян через торрент | UTorrent

28-11-2019 20:33  

Отключить всю рекламу на сайте

    Дорогой пользователь! Огромная просьба, поблагодарите релизера, оцените раздачу и оставьте свои комментарий, если Вы скачали Король обезьян через торрент бесплатно! Внесите свою лепту в развитие PiratBit!
    Комментировать посты могут только пользователи прошедшие не сложную регистрацию
    Показать сообщения:    

    Король обезьян через торрент
    Скачать бесплатно Король обезьян
    Король обезьян скачать торрент
    Король обезьян смотреть онлайн
    Cкачать фильм Король обезьян бесплатно
    Король обезьян скачать торрент в хорошем качестве
    Король обезьян смотреть онлайн бесплатно в хорошем качестве


    Вы не можете начинать темы
    Вы не можете отвечать на сообщения
    Вы не можете редактировать свои сообщения
    Вы не можете удалять свои сообщения
    Вы не можете голосовать в опросах
    Вы не можете прикреплять файлы к сообщениям
    Вы можете скачивать файлы