новый адрес пиратбит piratbit
Мега распродажа FORZA HORIZON 4 ULTIMATE+ВСЕ DLC+ОНЛАЙН всего за 499р. 349 руб. (супер цена). Внимание количество ограничено!!!

iTunes

1+1

iTunes

мы

iTunes

1

iTunes

Чернобыль

iTunes

Ральф против интернета

Лицензия

ПШазам

Лицензия

Игра престолов

Лицензия

30
pack

ВАЖНО

!!Акция!!

Alien_RageХит недели

RePack

Resident Evil 21

ИГРА 18+

pack

RePack

Metro:Exodus

!!Акция!!

Alien_Rage

RePack

fifa19

RePack

Assassins Creed: Odyssey

RePack

NEED FOR SPEED™ PAYBACK

3 сезон

9 сезон

Бесстыжие 9 сезон

Все сериалы

все сериалы на PB.wtf

RePack

FAR CRY 5
Ребята, катастрофически не хватает 1900р. для оплаты серверов за Октябрь (всвязи с блокировками трафик упал в 3 раза), 1-2р., выручайте.
  

Любовь земная (Евгений Матвеев) [1974 г., мелодрама, DVDRip-AVC] pb.wtf

Любовь земная через торрент pb.wtf

Размер: 1.46 GB | Добавлен: 10 мес. назад | Торрент скачан:14 раз
Скачать  

14-05-2014 14:46 Любовь земная Скачать торрент  

Любовь земнаяГод выпуска: 1974
Страна: CCCP
Жанр: мелодрама
Продолжительность: 01:29:07
Субтитры: отсутствуют

Режиссер: Евгений Матвеев
Сценарий: Валентин Черных, Евгений Матвеев, Петр Проскурин

Премьера в мире: 24 июля 1975

rating
В ролях: Евгений Матвеев, Зинаида Кириенко, Ольга Остроумова, Валерия Заклунная, Юрий Яковлев, Ирина Скобцева, Владимир Самойлов, Виктор Хохряков, Александр Потапов, Станислав Чекан, Муза Крепкогорская, Валентин Брылеев, Юрий Леонидов, Вадим Спиридонов, Валентина Владимирова, Лидия Ольшевская, Владимир Носик, Валентин Черняк, Александр Вигдоров, Владимир Плотников, Валентина Ушакова, Николай Юдин, Александр Лебедев, Валентина Клягина, Николай Викулин, Владимир Гуляев, Любовь Соколова, Роман Филиппов
Описание: Председатель колхоза Захар Дерюгин, имея семью, полюбил Маню Поливанову. Маня рожает от него сына. Захара исключают из партии и снимают с должности председателя. Душа его этим уязвлена, но больше всего он страдает оттого, что Маня решила с ним расстаться и воспитывать сына самостоятельно. Но началась война, и Захар уходит на фронт…
Доп. информация: Первая часть кинодилогии (вторая - фильм "Судьба") по мотивам романа Петра Проскурина "Судьба". Колхозная мелодрама из жизни 1930-х годов. Председатель колхоза, невзирая на общественное мнение и многодетную семью, встречается с молодой колхозницей. Сюжет идет вразрез с доминировавшим в советские годы стилем социалистического реализма. Что, несомненно, значительно повлияло на зрительский успех, как и неплохая постановка и актерская игра в целом (50 млн. зрителей).

Качество: DVDRip-AVC
Формат: MKV
Видео кодек: AVC
Аудио кодек: AC3
Видео: 694x376@740x376 (1.97:1), 25 fps, AVC (H.264) ~1956 kbps avg, 0.300 bit/pixel
Аудио: 48 kHz, AC3, 2 ch, ~384 kbps avg
Автор рипа:
Sokolmy2
General
Unique ID : 215371937022253184572722023291202870885 (0xA20720532D5F7D07A3122463F3249E65)
Complete name : D:\KINO\Любовь земная.mkv
Format : Matroska
Format version : Version 2
File size : 1.46 GiB
Duration : 1h 29mn
Overall bit rate : 2 342 Kbps
Encoded date : UTC 2012-11-11 17:53:18
Writing application : mkvmerge v5.6.0 ('Kenya Kane') built on May 27 2012 16:44:04
Writing library : libebml v1.2.3 + libmatroska v1.3.0
Video
ID : 1
Format : AVC
Format/Info : Advanced Video Codec
Format profile : High@L4.1
Format settings, CABAC : Yes
Format settings, ReFrames : 16 frames
Codec ID : V_MPEG4/ISO/AVC
Duration : 1h 29mn
Bit rate : 1 956 Kbps
Width : 694 pixels
Height : 376 pixels
Display aspect ratio : 1.968
Original display aspect ratio : 1.969
Frame rate : 25.000 fps
Color space : YUV
Chroma subsampling : 4:2:0
Bit depth : 8 bits
Scan type : Progressive
Bits/(Pixel*Frame) : 0.300
Stream size : 1.19 GiB (82%)
Writing library : x264 core 125 r2200 999b753
Encoding settings : cabac=1 / ref=16 / deblock=1:-2:-1 / analyse=0x3:0x133 / me=umh / subme=10 / psy=1 / psy_rd=1.00:0.10 / mixed_ref=1 / me_range=24 / chroma_me=1 / trellis=2 / 8x8dct=1 / cqm=0 / deadzone=21,11 / fast_pskip=1 / chroma_qp_offset=-3 / threads=3 / lookahead_threads=1 / sliced_threads=0 / nr=0 / decimate=1 / interlaced=0 / bluray_compat=0 / constrained_intra=0 / bframes=8 / b_pyramid=2 / b_adapt=2 / b_bias=0 / direct=3 / weightb=1 / open_gop=0 / weightp=2 / keyint=250 / keyint_min=25 / scenecut=40 / intra_refresh=0 / rc_lookahead=60 / rc=2pass / mbtree=1 / bitrate=1956 / ratetol=1.0 / qcomp=0.60 / qpmin=10 / qpmax=51 / qpstep=4 / cplxblur=20.0 / qblur=0.5 / vbv_maxrate=50000 / vbv_bufsize=50000 / nal_hrd=none / ip_ratio=1.40 / aq=1:1.00
Audio
ID : 2
Format : AC-3
Format/Info : Audio Coding 3
Mode extension : CM (complete main)
Codec ID : A_AC3
Duration : 1h 29mn
Bit rate mode : Constant
Bit rate : 384 Kbps
Channel(s) : 2 channels
Channel positions : Front: L R
Sampling rate : 48.0 KHz
Bit depth : 16 bits
Compression mode : Lossy
Stream size : 245 MiB (16%)

--------------------------------------
---[NoImage] avs [info]: 694x376p 92543:86750 @ 25/1 fps (cfr)
---[NoImage] x264 [info]: using SAR=46271/43375
---[NoImage] x264 [info]: using cpu capabilities: MMX2 SSE2Fast FastShuffle SSEMisalign LZCNT
---[NoImage] x264 [info]: profile High, level 4.1
---[NoImage]
---[NoImage] x264 [info]: frame I:57 Avg QP:19.26 size: 28633
---[NoImage] x264 [info]: frame P:693 Avg QP:20.13 size: 15394
---[NoImage] x264 [info]: frame B:1800 Avg QP:22.01 size: 7023
---[NoImage] x264 [info]: consecutive B-frames: 2.9% 3.8% 15.2% 78.1%
---[NoImage] x264 [info]: mb I I16..4: 4.8% 74.3% 20.9%
---[NoImage] x264 [info]: mb P I16..4: 1.4% 13.0% 2.5% P16..4: 44.2% 24.6% 11.4% 0.9% 0.1% skip: 2.0%
---[NoImage] x264 [info]: mb B I16..4: 0.1% 2.0% 0.4% B16..8: 45.3% 12.7% 2.8% direct:17.6% skip:19.2% L0:43.1% L1:42.4% BI:14.5%
---[NoImage] x264 [info]: 8x8 transform intra:76.7% inter:53.1%
---[NoImage] x264 [info]: direct mvs spatial:95.0% temporal:5.0%
---[NoImage] x264 [info]: coded y,uvDC,uvAC intra: 91.4% 85.4% 51.6% inter: 53.5% 45.1% 1.5%
---[NoImage] x264 [info]: i16 v,h,dc,p: 43% 25% 10% 23%
---[NoImage] x264 [info]: i8 v,h,dc,ddl,ddr,vr,hd,vl,hu: 15% 11% 4% 9% 12% 13% 11% 12% 12%
---[NoImage] x264 [info]: i4 v,h,dc,ddl,ddr,vr,hd,vl,hu: 14% 14% 3% 8% 12% 13% 12% 11% 13%
---[NoImage] x264 [info]: i8c dc,h,v,p: 37% 29% 18% 16%
---[NoImage] x264 [info]: Weighted P-Frames: Y:21.8% UV:3.2%
---[NoImage] x264 [info]: ref P L0: 38.9% 12.7% 20.0% 8.8% 6.8% 4.9% 4.4% 2.7% 0.7% 0.0%
---[NoImage] x264 [info]: ref B L0: 70.3% 16.3% 5.8% 3.2% 2.3% 1.5% 0.6%
---[NoImage] x264 [info]: ref B L1: 93.1% 6.9%
---[NoImage] x264 [info]: kb/s:1956.18
---[NoImage] encoded 2550 frames, 7.64 fps, 1956.18 kb/s

pb.wtf



Скачать Любовь земная через торрент http://pic.kartinco.top/images/6/ouy1c.jpg Скачать фильм Любовь земная через торрент бесплантно в хорошем качестве Описание: Председатель колхоза Захар Дерюгин, имея семью, полюбил Маню Поливанову. Маня рожает от него сына. Захара исключают из партии и ... 9.9 10 12
Торрент: Зарегистрирован [2018-12-20 10:32] · скачан: 14 раз
Статус: √ проверено
Размер: 1.46 GB
Как cкачать? Как скачать Любовь земная через торрент | qTorrent



Последний раз редактировалось: -Lexx- (2018-12-20 10:38), всего редактировалось 2 раз(а)


>> Регистрируемся здесь <<






Отзывы и комментарии о схеме читаем и пишем здесь: ---> Отзывы и комментарии о схеме

Новые благодарочки в телеграм довольных пользователей:
скриншот   скриншот   скриншот   скриншот   скриншот

20-12-2018 10:06 Любовь земная Скачать торрент  

У кого нибуть сохранился данный релиз? Раздачи нет вторые сутки! Торрент стоит отправлять на кладбище!pb.wtf
K-Lexx- писал(а):

Перезалил, теперь раздающие есть. Перекачайте торрент-файл заново.



    Дорогой пользователь! Огромная просьба, поблагодарите релизера, оцените раздачу и оставьте свои комментарий, если Вы скачали Любовь земная через торрент бесплатно! Внесите свою лепту в развитие PiratBit!
    Комментировать посты могут только пользователи прошедшие не сложную регистрацию
    Показать сообщения:    

    Любовь земная через торрент
    Скачать бесплатно Любовь земная
    Любовь земная скачать торрент
    Любовь земная смотреть онлайн
    Cкачать фильм Любовь земная бесплатно
    Любовь земная скачать торрент в хорошем качестве
    Любовь земная смотреть онлайн бесплатно в хорошем качестве


    Вы не можете начинать темы
    Вы не можете отвечать на сообщения
    Вы не можете редактировать свои сообщения
    Вы не можете удалять свои сообщения
    Вы не можете голосовать в опросах
    Вы не можете прикреплять файлы к сообщениям
    Вы можете скачивать файлы