2 сезон

iTunes

MVO

1

2 сезон

iTunes

iTunes

1 сезон

RePack

30

Новинка

ВАЖНО

ИГРА 18+

pack

RePack

MK11
pack

Легкие деньги

RePack

jed

RePack

fifa19

RePack

RDR2

RePack

NEED FOR SPEED™ PAYBACK

4 сезон

9 сезон

Бесстыжие 9 сезон

Все сериалы

все сериалы на PB.wtf

RePack

FAR CRY 5

Anonymous, добрый день, мы не успеваем собрать деньги на оплату серверов за декабрь и январь, помогите нам пожалуйста в это трудное время. В качестве благодарности мы отключим Вам всю рекламу на сайте (укажите свой ник в строку Ваше имя)!

×
  
Magnet ссылка

12 лет рабства / 12 Years a Slave (Стив МакКуин / Steve McQueen) [2013 г., Драма, биография, история, BDRip-AVC] DUB Лицензия pb.wtf

12 лет рабства через торрент pb.wtf

Размер: 3.13 GB | Добавлен: 6 лет 8 мес. назад | Торрент скачан:617 раз
Скачать  

14-05-2014 16:02 12 лет рабства Скачать торрент  

12 лет рабства / 12 Years a Slave
Год выпуска: 2013
Страна: США, Великобритания / New Regency Pictures , Plan B Entertainment, River Road Entertainment, Summit Entertainment
Жанр: Драма, биография, история
Продолжительность: 02:14:10
Перевод: Дубляж [BD RUS]
Субтитры: Русские, английские (Full + SDH + SDH-Colored)

Режиссер: Стив МакКуин / Steve McQueen



В ролях: Чиветел Эджиофор, Майкл Фассбендер, Бенедикт Камбербэтч, Пол Дано, Пол Джаматти, Лупита Нионго, Сара Полсон, Брэд Питт, Элфри Вудард, Кувенжане Уоллис

Описание: Соломон Нортап был женатым и образованным мужчиной, который жил и работал в Нью-Йорке, когда два человека однажды предложили ему привлекательную работу в Вашингтоне. По прибытии он был похищен, стал рабом и влачил жалкую жизнь, переходя от одного хозяина к другому.

Качество: BDRip-AVC
Формат: MKV
Видео кодек: MPEG4
Аудио кодек: AC3
Видео: 1056x440 (2,40:1), 23,976 fps, 2445 Кbps, 0.219 bit/pixel
Аудио#1: 48 kHz, AC3 Dolby Digital, 3/2 (L,C,R,l,r) + LFE ch, 448.00 kbps | RUS
Аудио#2: 48 kHz, AC3 Dolby Digital, 3/2 (L,C,R,l,r) + LFE ch, 448.00 kbps | ENG

Релиз группы:
Автор рипа: potroks

Общее
Уникальный идентификатор : 208340695220915953889750789821182645232 (0x9CBCF556D250E779889269C0EF7613F0)
Полное имя : 12.Let.Rabstva.2013.DUAL.BDRip.x264.-HELLYWOOD.mkv
Формат : Matroska
Версия формата : Version 4 / Version 2
Размер файла : 3,13 Гбайт
Продолжительность : 2 ч. 14 м.
Общий поток : 3343 Кбит/сек
Название фильма : HELLYWOOD - rip by potroks
Дата кодирования : UTC 2014-05-14 11:40:55
Программа кодирования : mkvmerge v5.9.0 ('On The Loose') built on Dec 15 2012 16:39:58
Библиотека кодирования : libebml v1.3.0 + libmatroska v1.4.0

Видео
Идентификатор : 1
Формат : AVC
Формат/Информация : Advanced Video Codec
Профиль формата : High@L4.1
Параметр CABAC формата : Да
Параметр ReFrames формата : 10 кадров
Идентификатор кодека : V_MPEG4/ISO/AVC
Продолжительность : 2 ч. 14 м.
Битрейт : 2445 Кбит/сек
Ширина : 1056 пикселей
Высота : 440 пикселей
Соотношение сторон : 2,40:1
Режим частоты кадров : Постоянный
Частота кадров : 23,976 кадра/сек
Цветовое пространство : YUV
Субдискретизация насыщенности : 4:2:0
Битовая глубина : 8 бит
Тип развёртки : Прогрессивная
Бит/(Пиксели*Кадры) : 0.219
Размер потока : 2,23 Гбайт (71%)
Заголовок : 12 Years A Slave
Библиотека кодирования : x264 core 130 r2273 b3065e6
Настройки программы : cabac=1 / ref=10 / deblock=1:-2:-2 / analyse=0x3:0x133 / me=umh / subme=11 / psy=1 / psy_rd=0.99:0.02 / mixed_ref=1 / me_range=32 / chroma_me=1 / trellis=2 / 8x8dct=1 / cqm=0 / deadzone=21,11 / fast_pskip=0 / chroma_qp_offset=-3 / threads=6 / lookahead_threads=1 / sliced_threads=0 / nr=0 / decimate=0 / interlaced=0 / bluray_compat=0 / constrained_intra=0 / bframes=11 / b_pyramid=2 / b_adapt=2 / b_bias=0 / direct=3 / weightb=1 / open_gop=0 / weightp=2 / keyint=250 / keyint_min=23 / scenecut=40 / intra_refresh=0 / rc_lookahead=60 / rc=2pass / mbtree=0 / bitrate=2445 / ratetol=1.0 / qcomp=0.70 / qpmin=0 / qpmax=69 / qpstep=4 / cplxblur=20.0 / qblur=0.5 / vbv_maxrate=20000 / vbv_bufsize=25000 / nal_hrd=none / ip_ratio=1.35 / pb_ratio=1.25 / aq=1:0.80
Язык : English
Default : Да
Forced : Нет

Аудио #1
Идентификатор : 2
Формат : AC-3
Формат/Информация : Audio Coding 3
Расширение режима : CM (complete main)
Параметр Endianness формата : Big
Идентификатор кодека : A_AC3
Продолжительность : 2 ч. 14 м.
Вид битрейта : Постоянный
Битрейт : 448 Кбит/сек
Каналы : 6 каналов
Расположение каналов : Front: L C R, Side: L R, LFE
Частота : 48,0 КГц
Битовая глубина : 16 бит
Метод сжатия : С потерями
Размер потока : 430 Мбайт (13%)
Заголовок : Dub | DD 5.1 @ 448 kbps - BD RUS
Язык : Russian
Default : Да
Forced : Нет

Аудио #2
Идентификатор : 3
Формат : AC-3
Формат/Информация : Audio Coding 3
Расширение режима : CM (complete main)
Параметр Endianness формата : Big
Идентификатор кодека : A_AC3
Продолжительность : 2 ч. 14 м.
Вид битрейта : Постоянный
Битрейт : 448 Кбит/сек
Каналы : 6 каналов
Расположение каналов : Front: L C R, Side: L R, LFE
Частота : 48,0 КГц
Битовая глубина : 16 бит
Метод сжатия : С потерями
Размер потока : 430 Мбайт (13%)
Заголовок : Original | DD 5.1 @ 448 kbps
Язык : English
Default : Нет
Forced : Нет

Текст #1
Идентификатор : 4
Формат : UTF-8
Идентификатор кодека : S_TEXT/UTF8
Идентификатор кодека/Информация : UTF-8 Plain Text
Язык : Russian
Default : Нет
Forced : Нет

Текст #2
Идентификатор : 5
Формат : UTF-8
Идентификатор кодека : S_TEXT/UTF8
Идентификатор кодека/Информация : UTF-8 Plain Text
Заголовок : Full
Язык : English
Default : Нет
Forced : Нет

Текст #3
Идентификатор : 6
Формат : UTF-8
Идентификатор кодека : S_TEXT/UTF8
Идентификатор кодека/Информация : UTF-8 Plain Text
Заголовок : SDH
Язык : English
Default : Нет
Forced : Нет

Текст #4
Идентификатор : 7
Формат : UTF-8
Идентификатор кодека : S_TEXT/UTF8
Идентификатор кодека/Информация : UTF-8 Plain Text
Заголовок : SDH-Colored
Язык : English
Default : Нет
Forced : Нет

Меню
00:00:00.000 : en:00:00:00.000
00:06:02.862 : en:00:06:02.862
00:10:13.530 : en:00:10:13.530
00:12:58.778 : en:00:12:58.778
00:16:24.650 : en:00:16:24.650
00:19:18.866 : en:00:19:18.866
00:25:01.709 : en:00:25:01.709
00:27:48.458 : en:00:27:48.458
00:32:07.968 : en:00:32:07.968
00:36:07.874 : en:00:36:07.874
00:39:39.127 : en:00:39:39.127
00:45:16.714 : en:00:45:16.714
00:47:36.145 : en:00:47:36.145
00:52:26.977 : en:00:52:26.977
00:54:34.188 : en:00:54:34.188
00:59:34.029 : en:00:59:34.029
01:01:47.704 : en:01:01:47.704
01:06:04.544 : en:01:06:04.544
01:09:55.691 : en:01:09:55.691
01:12:47.989 : en:01:12:47.989
01:15:27.690 : en:01:15:27.690
01:18:31.874 : en:01:18:31.874
01:21:08.489 : en:01:21:08.489
01:23:46.688 : en:01:23:46.688
01:26:25.972 : en:01:26:25.972
01:28:18.877 : en:01:28:18.877
01:31:22.519 : en:01:31:22.519
01:34:10.144 : en:01:34:10.144
01:38:14.013 : en:01:38:14.013
01:41:50.313 : en:01:41:50.313
01:45:18.896 : en:01:45:18.896
01:53:09.908 : en:01:53:09.908
01:54:46.505 : en:01:54:46.505
02:00:22.215 : en:02:00:22.215
02:04:07.398 : en:02:04:07.398
02:07:25.721 : en:02:07:25.721

pb.wtf



Скачать 12 лет рабства через торрент http://i60.fastpic.ru/big/2014/0412/5f/6f11d1d1849dec275bdf63ee5173945f.jpg Скачать фильм 12 лет рабства через торрент бесплантно в хорошем качестве Описание: Соломон Нортап был женатым и образованным мужчиной, который жил и работал в Нью-Йорке, когда два человека однажды предложили ему ... 9.2 10 11
Торрент: Зарегистрирован [2014-05-14 16:02] · скачан: 617 раз
Статус: √ проверено
Размер: 3.13 GB
Как cкачать? Как скачать 12 лет рабства через торрент | UTorrent

% Раздел Тема Автор DL S | L
Фильмы 2013 [DVDrip, WEB-DLRip, HDrip] [ 2.18 GB ] 12 лет рабства / 12 Years a Slave [2013 биография история HDRip-AVC] DUB [] от R.G. PiratFilms Phoenix Скачать
1 | 1
Фильмы [HD 720p, 1080p] (Хороший звук DUB, MVO) [ 8.33 GB ] 12 лет рабства / 12 Years a Slave [2013 биография история BDRip 720p] DUB potroks Скачать
1 | 0

28-11-2019 20:33  

Отключить всю рекламу на сайте

    Дорогой пользователь! Огромная просьба, поблагодарите релизера, оцените раздачу и оставьте свои комментарий, если Вы скачали 12 лет рабства через торрент бесплатно! Внесите свою лепту в развитие PiratBit!
    Комментировать посты могут только пользователи прошедшие не сложную регистрацию
    Показать сообщения:    

    12 лет рабства через торрент
    Скачать бесплатно 12 лет рабства
    12 лет рабства скачать торрент
    12 лет рабства смотреть онлайн
    Cкачать фильм 12 лет рабства бесплатно
    12 лет рабства скачать торрент в хорошем качестве
    12 лет рабства смотреть онлайн бесплатно в хорошем качестве


    Вы не можете начинать темы
    Вы не можете отвечать на сообщения
    Вы не можете редактировать свои сообщения
    Вы не можете удалять свои сообщения
    Вы не можете голосовать в опросах
    Вы не можете прикреплять файлы к сообщениям
    Вы можете скачивать файлы