новый адрес
Ссылка на приватное зеркало всего за 1$. Внимание количество ограничено!!!

iTunes

1+1

iTunes

мы

WEB-DL

1

iTunes

Чернобыль

iTunes

Ральф против интернета

Лицензия

ПШазам

Лицензия

Оно 2

Лицензия

30
pack

Вам бонус

ВАЖНО

!!Акция!!

Alien_RageХит недели

RePack

Resident Evil 21

ИГРА 18+

pack

RePack

jed

!!Акция!!

Alien_Rage

RePack

fifa19

RePack

Assassins Creed: Odyssey

RePack

NEED FOR SPEED™ PAYBACK

3 сезон

9 сезон

Бесстыжие 9 сезон

Все сериалы

все сериалы на PB.wtf

RePack

FAR CRY 5
Ребята, катастрофически не хватает 1900р. для оплаты серверов за Октябрь (всвязи с блокировками трафик упал в 3 раза), 1-2р., выручайте.
  

Помпеи / Pompeii (Пол У. С. Андерсон) [2014 г., боевик, драма, мелодрама, приключения, BDRip, Дубляж Лицензия] pb.wtf

Помпеи через торрент pb.wtf

Размер: 2.17 GB | Добавлен: 5 лет 4 мес. назад | Торрент скачан:597 раз
Скачать  

14-05-2014 16:48 Помпеи Скачать торрент  

Помпеи / Pompeii
Год выпуска: 2014
Страна: Канада, Германия / Constantin Film Produktion, Don Carmody Productions, Impact Pictures
Жанр: боевик, драма, мелодрама, приключения
Продолжительность: 01:44:59.
Перевод: Дубляж (Лицензия)

Режиссер: Пол У. С. Андерсон

В ролях: Кит Харингтон, Эмили Браунинг, Кифер Сазерленд, Адевале Акинойе-Агбаже, Джаред Харрис, Кэрри-Энн Мосс, Джессика Лукас, Саша Ройз, Джо Пинг, Карри Грэм

Описание: История любви раба Майло и благородной Кассии, обрученной с римским сенатором, на фоне извержения Везувия, которое навсегда стерло с лица земли древнеримский город Помпеи…

Качество: BDRip (Рип с Blu-ray RUS 1080p AVC DTS-HD 5.1 )
Формат: AVI
Видео кодек: XviD
Аудио кодек: AC3
Видео: MPEG4, XviD, 720x304 (2.35:1), 23.976 fps, 2 512 Kbps (0.479 bit/pixel)
Аудио: AC-3, 48.0 KHz, 6 ch, 448 Kbps, CBR

скриншот   скриншот   скриншот   скриншот   скриншот   скриншот   скриншот   скриншот  

Общее
Полное имя : H:\кино\Pompeii.2014.BDRip.avi
Формат : AVI
Формат/Информация : Audio Video Interleave
Профиль формата : OpenDML
Размер файла : 2,17 Гбайт
Продолжительность : 1 ч. 44 м.
Общий поток : 2972 Кбит/сек
Программа кодирования : VirtualDubMod 1.5.10.3 | www.virtualdub-fr.org || (build 2550/release)
Библиотека кодирования : VirtualDubMod build 2550/release

Видео
Идентификатор : 0
Формат : MPEG-4 Visual
Профиль формата : Advanced Simple@L5
Параметр BVOP формата : 2
Параметр QPel формата : Нет
Параметр GMC формата : Без точки перехода
Параметр матрицы формата : Default (H.263)
Идентификатор кодека : XVID
Идентификатор кодека/Подсказка : XviD
Продолжительность : 1 ч. 44 м.
Битрейт : 2512 Кбит/сек
Ширина : 720 пикселей
Высота : 304 пикселя
Соотношение сторон : 2,35:1
Частота кадров : 23,976 кадра/сек
Цветовое пространство : YUV
Субдискретизация насыщенности : 4:2:0
Битовая глубина : 8 бит
Тип развёртки : Прогрессивная
Метод сжатия : С потерями
Бит/(Пиксели*Кадры) : 0.479
Размер потока : 1,83 Гбайт (85%)
Библиотека кодирования : XviD 1.2.1 (UTC 2008-12-04)

Аудио
Идентификатор : 1
Формат : AC-3
Формат/Информация : Audio Coding 3
Расширение режима : CM (complete main)
Параметр Endianness формата : Big
Идентификатор кодека : 2000
Продолжительность : 1 ч. 44 м.
Вид битрейта : Постоянный
Битрейт : 448 Кбит/сек
Каналы : 6 каналов
Расположение каналов : Front: L C R, Side: L R, LFE
Частота : 48,0 КГц
Битовая глубина : 16 бит
Метод сжатия : С потерями
Размер потока : 334 Мбайт (15%)
Выравнивание : Разделение по промежуткам
Продолжительность промежутка : 42 мс. (1,00 видеокадр)
Время предзагрузки промежутка : 500 мс.

pb.wtf



Скачать Помпеи через торрент http://pic.kartinco.top/images/6/jt7zn.jpg Скачать фильм Помпеи через торрент бесплантно в хорошем качестве Описание: История любви раба Майло и благородной Кассии, обрученной с римским сенатором, на фоне извержения Везувия, которое навсегда ... 9.6 10 32
Торрент: Зарегистрирован [2014-07-09 07:40] · скачан: 597 раз
Статус: √ проверено
Размер: 2.17 GB
Как cкачать? Как скачать Помпеи через торрент | qTorrent

% Раздел Тема Автор DL S | L
Документальные фильмы и телепередачи [ 1.75 GB ] Viasat History: Новые секреты Помпеи / Pompeii: New Secrets Revealed [2016 Документальный HDTVRip 1080p] Armstrong Скачать
2 | 0
Документальные фильмы и телепередачи [ 819 MB ] Viasat History: Новые секреты Помпеи / Pompeii: New Secrets Revealed [2016 Документальный HDTVRip] Armstrong Скачать
1 | 0
3D Видео (48-60 fps) [ 15.69 GB ] Помпеи / Pompeii [2014 Германия 3D BDRip 1080p / 60 FPSГоризонтальная анаморфная стереопара ] Tiberiumsun69 Скачать
1 | 0
Фильмы 2013 [DVDrip, WEB-DLRip, HDrip] [ 1.46 GB ] Помпеи / Pompeii [2013 HDRip-AVC White Smoke Скачать
1 | 0
Фильмы 2014 [DVDrip, WEB-DLRip, HDrip] [ 1.37 GB ] Помпеи / Pompeii [2014 Германия HDRip [ - / ] Ворон Скачать
1 | 0
3D Фильмы [ 10.68 GB ] Помпеи 3D / Pompeii 3D [ 2014 Германия BDRip1080p ] DUB GEKADOL Скачать
1 | 0
Фильмы (Blu-ray, BD-Remux, HDDVD) [ 24.76 GB ] Помпеи / Pompeii [2014 BD-Remux ] Бумер Скачать
1 | 0


Последний раз редактировалось: coc900 (2014-07-09 07:38), всего редактировалось 1 раз

28-11-2019 20:33  

Отключить всю рекламу на сайте

14-05-2014 23:30 Помпеи Скачать торрент  

звук уродский отстаёт минут на 5pb.wtf



09-07-2014 07:40 Помпеи Скачать торрент  

Релиз обновлен!Просьба перекачать торрент файл pb.wtf





Последний раз редактировалось: coc900 (2014-07-09 11:06), всего редактировалось 1 раз

09-07-2014 09:14 Помпеи Скачать торрент  

перекочать ?pb.wtf



12-07-2014 09:27 Помпеи Скачать торрент  

фильм проходной
просмотрен в ускоренном режимеpb.wtf



    Дорогой пользователь! Огромная просьба, поблагодарите релизера, оцените раздачу и оставьте свои комментарий, если Вы скачали Помпеи через торрент бесплатно! Внесите свою лепту в развитие PiratBit!
    Комментировать посты могут только пользователи прошедшие не сложную регистрацию
    Показать сообщения:    

    Помпеи через торрент
    Скачать бесплатно Помпеи
    Помпеи скачать торрент
    Помпеи смотреть онлайн
    Cкачать фильм Помпеи бесплатно
    Помпеи скачать торрент в хорошем качестве
    Помпеи смотреть онлайн бесплатно в хорошем качестве


    Вы не можете начинать темы
    Вы не можете отвечать на сообщения
    Вы не можете редактировать свои сообщения
    Вы не можете удалять свои сообщения
    Вы не можете голосовать в опросах
    Вы не можете прикреплять файлы к сообщениям
    Вы можете скачивать файлы