Ссылка на приватное зеркало нашего сайта всего за 1$. Внимание количество ограничено!!!

2 сезон

iTunes

1 сезон

1

iTunes

iTunes

iTunes

1 сезон

RePack

30

ИГРА 18+

pack

ВАЖНО

!!Акция!!

Alien_RageХит недели

RePack

MK11
pack

Забери бонус

RePack

jed

!!Акция!!

Alien_Rage

RePack

fifa19

RePack

Assassins Creed: Odyssey

RePack

NEED FOR SPEED™ PAYBACK

4 сезон

9 сезон

Бесстыжие 9 сезон

Все сериалы

все сериалы на PB.wtf

RePack

FAR CRY 5
  

Запах женщины / Scent of a Woman (Мартин Брест) [1992 г., драма, BDRip 720p] 4xMVO + AVO (Визгунов, Гаврилов, Володарский) + Original Eng + Subs pb.wtf

Запах женщины через торрент pb.wtf

Размер: 12.7 GB | Добавлен: 6 лет 5 мес. назад | Торрент скачан:44 раза
Скачать  

15-05-2014 08:28 Запах женщины Скачать торрент  

Запах женщины / Scent of a WomanГод выпуска: 1992
Страна: США
Жанр: драма
Продолжительность: 2:36:24
Перевод:
1. Профессиональный (многоголосый, закадровый) с Blu-Ray
2. Профессиональный (многоголосый, закадровый) СТС (отдельно)
3. Профессиональный (многоголосый, закадровый) (отдельно)
4. Профессиональный (многоголосый, закадровый) (отдельно)
5. Авторский (Визгунов Сергей с подругой) (отдельно)
6. Авторский (Володарский Леонид) (отдельно)
7. Авторский (Гаврилов Андрей) (отдельно)
Субтитры: русские, английские

Режиссер: Мартин Брест
Продюссер: Мартин Брест, Дж. Мак Браун, Рональд Л. Швари
Сценарий: Бо Голдмэн, Руджеро Маккари, Дино Ризи

Премьера в мире: 23 декабря 1992










В ролях: Аль Пачино (Lieutenant Colonel Frank Slade), Крис О`Доннелл (Charlie Simms), Джеймс Ребхорн (Mr. Trask), Габриель Анвар (Donna), Филип Сеймур Хоффман (George Willis, Jr.), Ричард Венчур (W.R. Slade), Брэдли Уитфорд (Randy), Рошелль Оливер (Gretchen), Маргарет Эджинтон (Gail), Том Риис Фаррелл (Garry) и другие




Описание: Наступил День благодарения, и отставной полковник разведки Фрэнк Слэйд решает справить праздник, «побаловав» себя поездкой в Нью-Йорк. Фрэнк хочет обставить свой последний «коронный выход» по высшему разряду: изысканный отель, шикарный лимузин, дорогая выпивка и женщины потрясающей красоты.
Есть лишь две проблемки. Первая: Фрэнк слеп на оба глаза. И вторая: волнующиеся родственники полковника решают нанять за небольшую сумму провожатого в лице нуждающегося студента престижного колледжа по имени Чарли Симмз. Последнее, что было нужно в поездке полковнику Слэйду — так это «зеленый» юнец Чарли. Но случилось так, что путешествие этих двух потрясающе не похожих друг на друга людей изменило их жизни навсегда.





Доп. информация: Спасибо sergey_n, I.D., Васька77, Skazhutin.

Качество: BDRip 720p
Формат: MKV
Видео кодек: AVC
Аудио кодек: DTS, AC3
Видео: 1280x696 (16:9); 6489 Kbps; 23,976 fps; 0,311 bpp
Аудио#1: Russian; DTS; 768 Kbps; CBR; 2 ch; 48.0 KHz; Многоголосый с Blu-ray
Аудио#2: Russian; AC3; 192 Kbps; CBR; 2 ch; 48.0 KHz; Многоголосый СТС (отдельно)
Аудио#3: Russian; AC3; 384 Kbps; CBR; 6 ch; 48.0 KHz; Многоголосый (отдельно)
Аудио#4: Russian; AC3; 384 Kbps; CBR; 2 ch; 48.0 KHz; Многоголосый (отдельно)
Аудио#5: Russian; AC3; 192 Kbps; CBR; 2 ch; 48.0 KHz; Визгунов с подругой (отдельно)
Аудио#6: Russian; AC3; 192 Kbps; CBR; 2 ch; 48.0 KHz; Володарский (отдельно)
Аудио#7: Russian; DTS; 1509 Kbps; CBR; 6 ch; 48.0 KHz; Гаврилов (отдельно)
Аудио#8: English; DTS; 1509 Kbps; CBR; 6 ch; 48.0 KHz
Релиз от:

General
Complete name : Scent.of.a.Woman.1992.720p.BluRay.x264.DTS-Skazhutin.mkv
Format : Matroska
File size : 9.52 GiB
Duration : 2h 36mn
Overall bit rate : 8 715 Kbps
Encoded date : UTC 2010-08-14 17:51:43
Writing application : mkvmerge v4.2.0 ('No Talking') built on Jul 28 2010 18:38:23
Writing library : libebml v1.0.0 + libmatroska v1.0.0
Video
ID : 1
Format : AVC
Format/Info : Advanced Video Codec
Format profile : High@L4.1
Format settings, CABAC : Yes
Format settings, ReFrames : 8 frames
Muxing mode : Container profile=Unknown@4.1
Codec ID : V_MPEG4/ISO/AVC
Duration : 2h 36mn
Bit rate : 6 277 Kbps
Width : 1 280 pixels
Height : 696 pixels
Display aspect ratio : 16:9
Frame rate : 23.976 fps
Color space : YUV
Chroma subsampling : 4:2:0
Bit depth : 8 bits
Scan type : Progressive
Bits/(Pixel*Frame) : 0.294
Stream size : 6.86 GiB (72%)
Title : 1280x696 (16:9); 6434 Kbps; 23,976 fps; 0,308 bpp
Writing library : x264 core 104 r1688kMod 0b36c6d
Encoding settings : cabac=1 / ref=8 / deblock=1:-3:-2 / analyse=0x3:0x113 / me=umh / subme=10 / psy=1 / psy_rd=0.85:0.00 / mixed_ref=1 / me_range=32 / chroma_me=1 / trellis=2 / 8x8dct=1 / cqm=0 / deadzone=21,11 / fast_pskip=1 / chroma_qp_offset=-2 / threads=6 / sliced_threads=0 / nr=0 / decimate=1 / interlaced=0 / constrained_intra=0 / bframes=9 / b_pyramid=2 / b_adapt=2 / b_bias=0 / direct=3 / weightb=1 / open_gop=0 / weightp=2 / keyint=250 / keyint_min=23 / scenecut=40 / intra_refresh=0 / rc=crf / mbtree=0 / crf=18.6500 / qcomp=0.60 / qpmin=10 / qpmax=51 / qpstep=4 / ip_ratio=1.40 / pb_ratio=1.30 / aq=1:0.90 / zones=59480,63836,q=30
Matrix coefficients : BT.709-5, BT.1361, IEC 61966-2-4 709, SMPTE RP177
Audio #1
ID : 2
Format : DTS
Format/Info : Digital Theater Systems
Codec ID : A_DTS
Duration : 2h 36mn
Bit rate mode : Constant
Bit rate : 755 Kbps
Channel(s) : 2 channels
Channel positions : Front: L R
Sampling rate : 48.0 KHz
Bit depth : 24 bits
Stream size : 844 MiB (9%)
Title : MVO @ DTS 5.1 @ 768 kbps
Language : Russian
Audio #2
ID : 3
Format : DTS
Format/Info : Digital Theater Systems
Codec ID : A_DTS
Duration : 2h 36mn
Bit rate mode : Constant
Bit rate : 1 510 Kbps
Channel(s) : 6 channels
Channel positions : Front: L C R, Side: L R, LFE
Sampling rate : 48.0 KHz
Bit depth : 24 bits
Stream size : 1.65 GiB (17%)
Title : Original @ DTS 5.1 @ 1509 kbps
Text #1
ID : 4
Format : UTF-8
Codec ID : S_TEXT/UTF8
Codec ID/Info : UTF-8 Plain Text
Language : Russian
Text #2
ID : 5
Format : UTF-8
Codec ID : S_TEXT/UTF8
Codec ID/Info : UTF-8 Plain Text
Menu
00:00:00.000 : en:The Baird Preparatory School
00:06:22.924 : en:The Job Interview
00:20:06.413 : en:A Prep School Prank
00:24:24.880 : en:One Special Student
00:35:01.641 : en:I'm Giving You Pearls Here
00:39:09.138 : en:The Waldorf Astoria
00:57:42.959 : en:Thanksgiving Dinner
01:08:41.367 : en:A.45 in .25
01:19:31.016 : en:Tango Lessons
01:40:29.523 : en:The Ferrari
01:52:33.329 : en:Back Too Fast
02:12:00.621 : en:An Open Meeting
02:19:49.047 : en:The Colonel Speaks Out
02:26:15.725 : en:The Disciplinary Committee's Decision
02:30:16.674 : en:The End of a Really Hard Weekend
02:33:21.984 : en:End Titles
y4m [info]: 1280x696p 1:1 @ 24000/1001 fps (cfr)
x264 [info]: using SAR=1/1
x264 [info]: using cpu capabilities: MMX2 SSE2Fast SSSE3 FastShuffle SSE4.1 Cache64
x264 [info]: profile High, level 4.1
x264 [info]: frame I:1708 Avg QP:17.58 size:126005 PSNR Mean Y:46.00 U:49.20 V:50.34 Avg:46.80 Global:46.30
x264 [info]: frame P:38536 Avg QP:21.38 size: 47596 PSNR Mean Y:43.45 U:48.63 V:50.11 Avg:44.38 Global:42.87
x264 [info]: frame B:184756 Avg QP:22.19 size: 30112 PSNR Mean Y:41.76 U:47.06 V:48.87 Avg:42.86 Global:42.29
x264 [info]: consecutive B-frames: 0.7% 0.5% 1.7% 10.2% 8.2% 45.6% 7.5% 11.3% 4.6% 9.7%
x264 [info]: mb I I16..4: 1.5% 91.7% 6.9%
x264 [info]: mb P I16..4: 0.2% 14.5% 0.6% P16..4: 35.9% 29.4% 13.7% 0.0% 0.0% skip: 5.7%
x264 [info]: mb B I16..4: 0.0% 2.6% 0.1% B16..8: 43.2% 18.7% 5.1% direct:11.8% skip:18.6% L0:47.6% L1:40.3% BI:12.1%
x264 [info]: 8x8 transform intra:95.2% inter:64.5%
x264 [info]: direct mvs spatial:99.8% temporal:0.2%
x264 [info]: coded y,uvDC,uvAC intra: 96.9% 86.7% 55.4% inter: 53.0% 41.3% 3.2%
x264 [info]: i16 v,h,dc,p: 45% 18% 7% 30%
x264 [info]: i8 v,h,dc,ddl,ddr,vr,hd,vl,hu: 13% 6% 9% 10% 14% 14% 11% 12% 11%
x264 [info]: i4 v,h,dc,ddl,ddr,vr,hd,vl,hu: 15% 6% 2% 9% 15% 17% 12% 12% 10%
x264 [info]: i8c dc,h,v,p: 42% 22% 19% 17%
x264 [info]: Weighted P-Frames: Y:6.7%
x264 [info]: ref P L0: 41.5% 7.6% 18.2% 10.2% 7.8% 6.3% 5.1% 3.1% 0.2% 0.0%
x264 [info]: ref B L0: 59.1% 16.9% 10.5% 6.1% 4.5% 2.2% 0.7%
x264 [info]: ref B L1: 88.0% 12.0%
x264 [info]: SSIM Mean Y:0.9640555 (14.444db)
x264 [info]: PSNR Mean Y:42.081 U:47.350 V:49.092 Avg:43.153 Global:42.408 kb/s:6489.65
encoded 225000 frames, 2.72 fps, 6489.64 kb/s

pb.wtf



Скачать Запах женщины через торрент http://pic.kartinco.top/images/6/owyt7.jpg Скачать фильм Запах женщины через торрент бесплантно в хорошем качестве Описание: Наступил День благодарения, и отставной полковник разведки Фрэнк Слэйд решает справить праздник, «побаловав» себя поездкой в ... 10 10 16
Info! Золотая раздача, скачанное не засчитывается.
Торрент: Зарегистрирован [2014-05-15 08:29] · скачан: 44 раз
Статус: √ проверено
Размер: 12.7 GB
Как cкачать? Как скачать Запах женщины через торрент | qTorrent

28-11-2019 20:33  

Отключить всю рекламу на сайте

    Дорогой пользователь! Огромная просьба, поблагодарите релизера, оцените раздачу и оставьте свои комментарий, если Вы скачали Запах женщины через торрент бесплатно! Внесите свою лепту в развитие PiratBit!
    Комментировать посты могут только пользователи прошедшие не сложную регистрацию
    Показать сообщения:    

    Запах женщины через торрент
    Скачать бесплатно Запах женщины
    Запах женщины скачать торрент
    Запах женщины смотреть онлайн
    Cкачать фильм Запах женщины бесплатно
    Запах женщины скачать торрент в хорошем качестве
    Запах женщины смотреть онлайн бесплатно в хорошем качестве


    Вы не можете начинать темы
    Вы не можете отвечать на сообщения
    Вы не можете редактировать свои сообщения
    Вы не можете удалять свои сообщения
    Вы не можете голосовать в опросах
    Вы не можете прикреплять файлы к сообщениям
    Вы можете скачивать файлы