Ссылка на приватное зеркало нашего сайта всего за 1$. Внимание количество ограничено!!!

2 сезон

iTunes

1 сезон

1

2 сезон

2 сезон

iTunes

1 сезон

RePack

30

Ultimate

ВАЖНО

ИГРА 18+

pack

RePack

MK11
pack

Забери бонус

RePack

jed

!!Акция!!

Alien_Rage

RePack

fifa19

RePack

Assassins Creed: Odyssey

RePack

NEED FOR SPEED™ PAYBACK

4 сезон

9 сезон

Бесстыжие 9 сезон

Все сериалы

все сериалы на PB.wtf

RePack

FAR CRY 5
  

Дорожные войны [эфир от 15.05] (Максим Володин, Сергей Трушкин) [2014 г., Документальный, DVB] pb.wtf

Дорожные войны через торрент pb.wtf

Размер: 504 MB | Добавлен: 6 лет 6 мес. назад | Торрент скачан:29 раз
Скачать  

15-05-2014 09:08 Дорожные войны Скачать торрент  

Дорожные войны [эфир от 15.05]
Год выпуска: 2014
Страна: Россия
Жанр: Документальный
Продолжительность: 00:14:16

Режиссер: Максим Володин, Сергей Трушкин

В ролях: Сотрудники ГИБДД, Очевидцы

Описание: Документальный сериал «Дорожные войны» рассказывает о работе сотрудников ГИБДД. Программа основана на материале, снятом видеорегистраторами патрульных машин, уличными камерами наблюдения и случайными очевидцами. Также присутствуют и собственные репортажи от съемочной группы ДТВ, выезжающей на дежурство вместе с экипажами ГИБДД.

Качество: DVB
Формат: MPEG
Видео кодек: MPEG2
Аудио кодек: MPEG Audio
Видео: MPEG 2, 768@720x576 (4:3), 25.000 fps, 4 578 Kbps (0.442 bit/pixel)
Аудио#1: MP2, 48.0 KHz, 1 ch, 128 Kbps, CBR (English)
Релиз от: Deadmauvlad
скриншот   скриншот   скриншот   скриншот  

Общее
Идентификатор : 1 (0x1)
Полное имя : D:Рипы выкладка [Deadmauvlad]Рипы готовыеDoroghnie.Voiny.DVB.Deadmauvlad.Efir.Ot.15.05.2014.mpg
Формат : MPEG-TS
Размер файла : 504 Мбайт
Продолжительность : 14 м.
Режим общего битрейта : Переменный
Общий поток : 4932 Кбит/сек

Видео
Идентификатор : 2304 (0x900)
Идентификатор меню : 1 (0x1)
Формат : MPEG Video
Версия формата : Version 2
Профиль формата : Main@Main
Параметр BVOP формата : Да
Параметр матрицы формата : Выборочная
Параметр GOP формата : Variable
Идентификатор кодека : 2
Продолжительность : 14 м.
Вид битрейта : Переменный
Битрейт : 4578 Кбит/сек
Ширина : 720 пикселей
Высота : 576 пикселей
Соотношение сторон : 4:3
Частота кадров : 25,000 кадров/сек
Стандарт вещания : PAL
Цветовое пространство : YUV
Субдискретизация насыщенности : 4:2:0
Битовая глубина : 8 бит
Тип развёртки : Чересстрочная
Порядок развёртки : Верхнее поле первое
Метод сжатия : С потерями
Бит/(Пиксели*Кадры) : 0.442
Временной код первого кадра : 00:00:00:00
Оригинал временного кода : Group of pictures header
Размер потока : 466 Мбайт (92%)

Аудио
Идентификатор : 2305 (0x901)
Идентификатор меню : 1 (0x1)
Формат : MPEG Audio
Версия формата : Version 1
Профиль формата : Layer 2
Идентификатор кодека : 3
Продолжительность : 14 м.
Вид битрейта : Постоянный
Битрейт : 128 Кбит/сек
Каналы : 1 канал
Частота : 48,0 КГц
Метод сжатия : С потерями
Задержка видео : 17 мс.
Размер потока : 13,1 Мбайт (3%)
Язык : English

pb.wtf



Скачать Дорожные войны через торрент http://pic.kartinco.top/images/6/caa4v.jpg Скачать фильм Дорожные войны [эфир от 15.05] через торрент бесплантно в хорошем качестве Описание: Документальный сериал «Дорожные войны» рассказывает о работе сотрудников ГИБДД. Программа основана на материале, снятом ... 7.5 10 2
Торрент: Зарегистрирован [2014-05-15 09:08] · скачан: 29 раз
Статус: √ проверено
Размер: 504 MB
Как cкачать? Как скачать Дорожные войны через торрент | qTorrent

% Раздел Тема Автор DL S | L
T Фильмы 2015 (Звук TS, Cam, VO, DVO) [ 1.37 GB ] Дорожные войны / Road Wars [2015 HDRip Любительский [Хихикающий доктор]] DJASFUL Скачать
1 | 0
Фильмы без перевода [ 901 MB ] Дорожные войны / Road Wars [2015 DVDRip Оригинал] makarevich Скачать
1 | 0
Информационно-аналитические и общественно-политические передачи [ 840 MB ] Дорожные войны [эфир от 11.07] [2014 Документальный DVB] Se7ven95 Скачать
1 | 0
Развлекательные телепередачи и шоу, приколы и юмор [ 1000 MB ] Дорожные войны [эфир от 08.10] [2014 Документальный DVB] Se7ven95 Скачать
1 | 0
Развлекательные телепередачи и шоу, приколы и юмор [ 1.62 GB ] Дорожные войны [эфир от 26.09] [2014 Документальный DVB] Se7ven95 Скачать
1 | 0
Развлекательные телепередачи и шоу, приколы и юмор [ 794 MB ] Дорожные войны [эфир от 18.09] [2014 Документальный DVB] Se7ven95 Скачать
1 | 0
Развлекательные телепередачи и шоу, приколы и юмор [ 775 MB ] Дорожные войны [эфир от 28.08] [2014 Документальный DVB] Se7ven95 Скачать
1 | 0

28-11-2019 20:33  

Отключить всю рекламу на сайте

    Дорогой пользователь! Огромная просьба, поблагодарите релизера, оцените раздачу и оставьте свои комментарий, если Вы скачали Дорожные войны через торрент бесплатно! Внесите свою лепту в развитие PiratBit!
    Комментировать посты могут только пользователи прошедшие не сложную регистрацию
    Показать сообщения:    

    Дорожные войны через торрент
    Скачать бесплатно Дорожные войны
    Дорожные войны скачать торрент
    Дорожные войны смотреть онлайн
    Cкачать фильм Дорожные войны бесплатно
    Дорожные войны скачать торрент в хорошем качестве
    Дорожные войны смотреть онлайн бесплатно в хорошем качестве


    Вы не можете начинать темы
    Вы не можете отвечать на сообщения
    Вы не можете редактировать свои сообщения
    Вы не можете удалять свои сообщения
    Вы не можете голосовать в опросах
    Вы не можете прикреплять файлы к сообщениям
    Вы можете скачивать файлы