Ссылка на приватное зеркало нашего сайта всего за 1$. Внимание количество ограничено!!!

2 сезон

iTunes

1 сезон

1

iTunes

iTunes

iTunes

1 сезон

RePack

30

ИГРА 18+

pack

ВАЖНО

!!Акция!!

Alien_RageХит недели

RePack

MK11
pack

Забери бонус

RePack

jed

!!Акция!!

Alien_Rage

RePack

fifa19

RePack

Assassins Creed: Odyssey

RePack

NEED FOR SPEED™ PAYBACK

4 сезон

9 сезон

Бесстыжие 9 сезон

Все сериалы

все сериалы на PB.wtf

RePack

FAR CRY 5
  

Ваколда / Wakolda (Лусия Пуэнсо / Lucía Puenzo) [2013, Аргентина, Франция, Испания, Норвегия, триллер, драма, история, DVDRip,Любительский (одноголосый) pb.wtf

Ваколда через торрент pb.wtf

Размер: 1.36 GB | Добавлен: 6 лет 5 мес. назад | Торрент скачан:129 раз
Скачать  

15-05-2014 09:08 Ваколда Скачать торрент  

Ваколда / Wakolda
Год выпуска: 2013
Страна: Аргентина, Франция, Испания, Норвегия
Жанр: триллер, драма, история
Продолжительность: 01:30:05
Перевод: Любительский (одноголосый) [R.A.I.M],перевод c испанского, немецкого, иврит:[ Naumanns/Арт-группа STOP!Genocide]
Субтитры: Нет

Режиссер: Лусия Пуэнсо / Lucía Puenzo
В ролях: Алекс Брендемюль (Josef Mengele), Наталия Орейро (Eva), Диего Перетти (Enzo), Флоренция Бадо (Lilith), Гильермо Пфенинг (Klaus), Елена Роджер (Nora Eldoc), Ана Паулс (Nurse), Алан Дайч (Tomás), Абрил Браунштейн (Ailín), Хуан И. Мартинес (Otto)

Описание: Патагония, 1960 г. По дороге в Бариоче немецкий физик встречает аргентинское семейство. Там, на берегу озера Нагуэль Хуапи, Ева, Энцо и трое их детей собираются сдавать меблированную комнату. Образцовая семья вновь пробуждает в ученом тоску по чистоте и совершенству. Его внимание особенно привлекает 12-летняя Лилит, которая кажется слишком маленькой для своего возраста. Не догадываясь о том, кем на самом деле является их новый знакомый, семья соглашается приютить его. Обаяние этого человека, его элегантные манеры, знания и богатство очаровывают их... но однажды они понимают, что живут рядом с одним из величайших преступников всех времен.

kinopoisk.ru: 8.000 (129)
imdb.com: 7.00 (1429)
MPAA: PG-13 - Детям до 13 лет просмотр не желателен

Качество: DVDRip
Формат: AVI
Видео кодек: XviD
Аудио кодек: AC3/MP3
Видео: XviD, 720x304 (2.35:1), 1767 kbps, 23,976 fps, 0,337 bpp
Аудио русский: AC3 / 2.0 / 44 kHz / 192 kbps / 16 bit
Аудио оригинал: MP3 / 2.0 / 44 kHz / 192 kbps /



General
Complete name : C:\закачки\Wakolda.2013.DVDRip.1400MB.avi
Format : AVI
Format/Info : Audio Video Interleave
File size : 1.36 GiB
Duration : 1h 30mn
Overall bit rate : 2 166 Kbps
Movie name : Wakolda.2013.DVDRip.1400MB.GOLIAF.TV
Director : -=REGIS1975=-Wakolda-=GOLIAF.TV=-
Genre : Thriller / Crime
Writing application : VirtualDubMod 1.5.4.1 (build 2066/release)
Writing library : VirtualDubMod build 2066/release
Original source form/Name : Movie

Comment : Rus.L1 [R.A.I.M]

Video
ID : 0
Format : MPEG-4 Visual
Format profile : Advanced Simple@L5
Format settings, BVOP : No
Format settings, QPel : No
Format settings, GMC : No warppoints
Format settings, Matrix : Default (H.263)
Codec ID : XVID
Codec ID/Hint : XviD
Duration : 1h 30mn
Bit rate : 1 767 Kbps
Width : 720 pixels
Height : 304 pixels
Display aspect ratio : 2.35:1
Frame rate : 23.976 fps
Color space : YUV
Chroma subsampling : 4:2:0
Bit depth : 8 bits
Scan type : Progressive
Compression mode : Lossy
Bits/(Pixel*Frame) : 0.337
Stream size : 1.11 GiB (82%)
Writing library : XviD 62

Audio #1
ID : 1
Format : AC-3
Format/Info : Audio Coding 3
Mode extension : CM (complete main)
Codec ID : 2000
Duration : 1h 30mn
Bit rate mode : Constant
Bit rate : 192 Kbps
Channel(s) : 2 channels
Channel positions : Front: L R
Sampling rate : 44.1 KHz
Bit depth : 16 bits
Compression mode : Lossy
Stream size : 124 MiB (9%)
Alignment : Split accross interleaves
Interleave, duration : 42 ms (1.00 video frame)
Interleave, preload duration : 500 ms

Audio #2
ID : 2
Format : MPEG Audio
Format version : Version 1
Format profile : Layer 3
Codec ID : 55
Codec ID/Hint : MP3
Duration : 1h 30mn
Bit rate mode : Constant
Bit rate : 192 Kbps
Channel(s) : 2 channels
Sampling rate : 44.1 KHz
Compression mode : Lossy
Stream size : 124 MiB (9%)
Alignment : Split accross interleaves
Interleave, duration : 42 ms (1.00 video frame)
Interleave, preload duration : 500 ms
Writing library : LAMELAME_MAJOR_VERSI
pb.wtf



Скачать Ваколда через торрент http://i058.radikal.ru/1405/4d/f7766c39a1c5.jpg Скачать фильм Ваколда через торрент бесплантно в хорошем качестве Описание: Патагония, 1960 г. По дороге в Бариоче немецкий физик встречает аргентинское семейство. Там, на берегу озера Нагуэль Хуапи, Ева, ... 9.2 10 6
Торрент: Зарегистрирован [2014-05-15 09:08] · скачан: 129 раз
Статус: √ проверено
Размер: 1.36 GB
Как cкачать? Как скачать Ваколда через торрент | qTorrent

28-11-2019 20:33  

Отключить всю рекламу на сайте

    Дорогой пользователь! Огромная просьба, поблагодарите релизера, оцените раздачу и оставьте свои комментарий, если Вы скачали Ваколда через торрент бесплатно! Внесите свою лепту в развитие PiratBit!
    Комментировать посты могут только пользователи прошедшие не сложную регистрацию
    Показать сообщения:    

    Ваколда через торрент
    Скачать бесплатно Ваколда
    Ваколда скачать торрент
    Ваколда смотреть онлайн
    Cкачать фильм Ваколда бесплатно
    Ваколда скачать торрент в хорошем качестве
    Ваколда смотреть онлайн бесплатно в хорошем качестве


    Вы не можете начинать темы
    Вы не можете отвечать на сообщения
    Вы не можете редактировать свои сообщения
    Вы не можете удалять свои сообщения
    Вы не можете голосовать в опросах
    Вы не можете прикреплять файлы к сообщениям
    Вы можете скачивать файлы