Ссылка на приватное зеркало нашего сайта всего за 1$. Внимание количество ограничено!!!

2 сезон

iTunes

1 сезон

1

2 сезон

2 сезон

iTunes

1 сезон

RePack

30

Новинка

ВАЖНО

ИГРА 18+

pack

RePack

MK11
pack

Забери бонус

RePack

jed

!!Акция!!

Alien_Rage

RePack

fifa19

RePack

Assassins Creed: Odyssey

RePack

NEED FOR SPEED™ PAYBACK

4 сезон

9 сезон

Бесстыжие 9 сезон

Все сериалы

все сериалы на PB.wtf

RePack

FAR CRY 5
  

Социопат / Twisted / Сезон: 1 / Серии 1-19 из19 (Гэвин Полон / Gavin Polone, Чад Лоу / Chad Lowe, Джо Лазаров / Joe Lazarov) [2013, США, триллер, драма, детектив, WEB-DLRip]MVO (To4ka) pb.wtf

Социопат через торрент pb.wtf

Размер: 8.35 GB | Добавлен: 6 лет 6 мес. назад | Торрент скачан:23 раза
Скачать  

15-05-2014 09:32 Социопат Скачать торрент  

Социопат / Twisted«Правда может быть убийственной»
Год выпуска: 2013
Страна: США
Жанр: триллер, драма, детектив
Продолжительность: 00:42:32
Перевод: Многоголосый закадровый, любительский - (To4ka)
Субтитры: Нет
Режиссер: Гэвин Полон / Gavin Polone, Чад Лоу / Chad Lowe, Джо Лазаров / Joe Lazarov
Сценарий: Адам Милч / Adam Milch, Brian Studler, Энди Ризер / Andy Reaser, Дэвид Бабкок / David Babcock, Дебра Дж. Фишер / Debra J. Fisher
Продюсер: Адам Милч / Adam Milch, Эрин Мехер / Erin Maher, Энди Ризер / Andy Reaser, Кэй Рейндл / Kay Reindl, Дэвид Хартл / David Hartle
Оператор: Марк Доринг-Пауэлл / Mark Doering-Powell, Тед Хаяш / Ted Hayash, Теодоро Маньячи / Teodoro Maniaci, Энтони Хардвик / Anthony Hardwick
Композитор: Гэбриел Манн / Gabriel Mann
В ролях:
Мэдди Хассон (Jo Masterson), Эштон Мойо (Rico), Кимберли Куинн (Tess Masterson), Кайли Банбери (Lacey Porter), Эван Джогиа (Danny Desai), Дениз Ричардс (Karen Desai), Сэм Робардс (Kyle Masterson), Аарон Хилл (Eddie Garrett), Грэй Дэймон (Archie), Бриттани Каррен (Phoebe Daly), Джамила Веласкес (Sarita), Иван Сергей (Jack Taylor)
Мировая премьера: 11 июня 2013
Описание:
История молодого парня - шестнадцатилетнего подростка, у которого большие проблемы с его прошлой жизнью. Он совсем недавно нашел двух своих лучших подруг, которых знал с самого детства. Но однажды его одноклассницу нашли в подвале своего дома, мертвой, и он становится главным подозреваемым по этому делу.
Рейтинг
kinopoisk.ru: 7.128 (520)
imdb.com: 7.80 (5025)
Качество: WEB-DLRip
Формат: AVI
Видео кодек: XviD
Аудио кодек: AC3/MP3/DTS
Видео: 1175 Кбит/сек, 720*400 (16:9), в 23,976 кадра/сек, MPEG-4 Visual (XviD)
Аудио №1: Русский 128 Кбит/сек, 48,0 КГц, 2 канала, MPEG Audio (MP3)
Аудио №2: Английский 128 Кбит/сек, 48,0 КГц, 2 канала, MPEG Audio (MP3) Раздача ведётся путём добавления новых серийДобалены 16-19 заключительные серии (23.05.2014)Просьба перекачать торрент файл

Внимание! Раздача ведётся путём добавления новых серий; при каждом добавлении создётся новый торрент. Чтобы начать докачку новой серии, пользователям необходимо сделать следующее:
(1) остановить скачивание,
(2) удалить старый торрент у себя из клиента (старые серии удалять не надо),
(3) скачать новый торрент и запустить его у себя в клиенте вместо старого, при этом указать клиенту путь в старую папку куда и должно происходить скачивание новых серий.
Ваш клиент при этом должен произвести хеширование (проверку) старой папки (если не производит сам - помогите ему сделать это), и будет докачивать только те серии которых у вас ещё нет. Старые серии при этом не удаляются, а продолжают раздаваться!
Eсли вы уже удалили старые серии, то предотвратить повторную закачку старых серий можно, отжав галочку в соответсвующих местах при запуске нового торрента. По возможности, желательно не удалять старые серии как можно дольше чтобы релизёр не столько продолжал раздавать старые серии, а смог сконцентрироваться на новых.

Общее
Полное имя : D:\Фильмы\Социопат (Сезон 1) To4ka\Социопат.s01e01.WEB-DLRip.Rus.Eng..avi
Формат : AVI
Формат/Информация : Audio Video Interleave
Размер файла : 450 Мбайт
Продолжительность : 44 м.
Общий поток : 1425 Кбит/сек
Программа кодирования : VirtualDubModRus 1.5.10.2 (build 2542/release)
Библиотека кодирования : VirtualDubMod build 2542/release

Видео
Идентификатор : 0
Формат : MPEG-4 Visual
Профиль формата : Advanced Simple@L5
Параметр BVOP формата : 1
Параметр QPel формата : Нет
Параметр GMC формата : Без точки перехода
Параметр матрицы формата : Выборочная
Идентификатор кодека : XVID
Идентификатор кодека/Подсказка : XviD
Продолжительность : 44 м.
Битрейт : 1155 Кбит/сек
Ширина : 720 пикселей
Высота : 400 пикселей
Соотношение сторон : 16:9
Частота кадров : 23,976 кадра/сек
Цветовое пространство : YUV
Субдискретизация насыщенности : 4:2:0
Битовая глубина : 8 бит
Тип развёртки : Прогрессивная
Метод сжатия : С потерями
Бит/(Пиксели*Кадры) : 0.167
Размер потока : 365 Мбайт (81%)
Библиотека кодирования : XviD 73

Аудио #1
Идентификатор : 1
Формат : MPEG Audio
Версия формата : Version 1
Профиль формата : Layer 3
Режим : Joint stereo
Расширение режима : MS Stereo
Идентификатор кодека : 55
Идентификатор кодека/Подсказка : MP3
Продолжительность : 44 м.
Вид битрейта : Постоянный
Битрейт : 128 Кбит/сек
Каналы : 2 канала
Частота : 48,0 КГц
Метод сжатия : С потерями
Размер потока : 40,4 Мбайт (9%)
Выравнивание : Соединение по промежуткам
Продолжительность промежутка : 42 мс. (1,00 видеокадр)
Время предзагрузки промежутка : 504 мс.

Аудио #2
Идентификатор : 2
Формат : MPEG Audio
Версия формата : Version 1
Профиль формата : Layer 3
Режим : Joint stereo
Расширение режима : MS Stereo
Идентификатор кодека : 55
Идентификатор кодека/Подсказка : MP3
Продолжительность : 44 м.
Вид битрейта : Постоянный
Битрейт : 128 Кбит/сек
Каналы : 2 канала
Частота : 48,0 КГц
Метод сжатия : С потерями
Размер потока : 40,4 Мбайт (9%)
Выравнивание : Разделение по промежуткам
Продолжительность промежутка : 42 мс. (1,00 видеокадр)
Время предзагрузки промежутка : 500 мс.

скриншот   скриншот   скриншот   скриншот   скриншот   скриншот   скриншот   скриншот   скриншот   скриншот  

pb.wtf



Скачать Социопат через торрент http://pic.kartinco.top/new/img/2014-06/28/3ez7vm9l06rpv7ldj6a90btun.jpg Скачать фильм Социопат через торрент бесплантно в хорошем качестве Описание:История молодого парня - шестнадцатилетнего подростка, у которого большие проблемы с его прошлой жизнью. Он совсем недавно нашел ... 7.7 10 7
Info! Золотая раздача, скачанное не засчитывается.
Торрент: Зарегистрирован [2014-05-23 13:39] · скачан: 23 раз
Статус: √ проверено
Размер: 8.35 GB
Как cкачать? Как скачать Социопат через торрент | qTorrent



Последний раз редактировалось: GEKADOL (2014-06-28 03:09), всего редактировалось 2 раз(а)

28-11-2019 20:33  

Отключить всю рекламу на сайте

15-05-2014 15:39 Социопат Скачать торрент  

Постер замените на аналогичный без упоминания сторонних ресурсов.pb.wtf



    Дорогой пользователь! Огромная просьба, поблагодарите релизера, оцените раздачу и оставьте свои комментарий, если Вы скачали Социопат через торрент бесплатно! Внесите свою лепту в развитие PiratBit!
    Комментировать посты могут только пользователи прошедшие не сложную регистрацию
    Показать сообщения:    

    Социопат через торрент
    Скачать бесплатно Социопат
    Социопат скачать торрент
    Социопат смотреть онлайн
    Cкачать фильм Социопат бесплатно
    Социопат скачать торрент в хорошем качестве
    Социопат смотреть онлайн бесплатно в хорошем качестве


    Вы не можете начинать темы
    Вы не можете отвечать на сообщения
    Вы не можете редактировать свои сообщения
    Вы не можете удалять свои сообщения
    Вы не можете голосовать в опросах
    Вы не можете прикреплять файлы к сообщениям
    Вы можете скачивать файлы