новый адрес пиратбит piratbit
Мега распродажа FORZA HORIZON 4 ULTIMATE+ВСЕ DLC+ОНЛАЙН всего за 499р. 349 руб. (супер цена). Внимание количество ограничено!!!

iTunes

1+1

iTunes

мы

iTunes

1

iTunes

Чернобыль

iTunes

Ральф против интернета

Лицензия

ПШазам

Лицензия

Игра престолов

Лицензия

30
pack

ВАЖНО

!!Акция!!

Alien_RageХит недели

RePack

Resident Evil 21

ИГРА 18+

pack

RePack

Metro:Exodus

!!Акция!!

Alien_Rage

RePack

fifa19

RePack

Assassins Creed: Odyssey

RePack

NEED FOR SPEED™ PAYBACK

3 сезон

9 сезон

Бесстыжие 9 сезон

Все сериалы

все сериалы на PB.wtf

RePack

FAR CRY 5
Ребята, катастрофически не хватает 1900р. для оплаты серверов за Октябрь (всвязи с блокировками трафик упал в 3 раза), 1-2р., выручайте.
  

Побег из Шоушенка / The Shawshank Redemption (Фрэнк Дарабонт) [1994 г., Драма, криминал, BD-Remux 1080p] 4xMVO + 2xDVO + 6xAVO + Ukr + Original pb.wtf

Побег из Шоушенка через торрент pb.wtf

Размер: 38.83 GB | Добавлен: 5 лет 5 мес. назад | Торрент скачан:1 раз
Скачать  

15-05-2014 16:12 Побег из Шоушенка Скачать торрент  

Побег из Шоушенка / The Shawshank Redemption
Год выпуска: 1994
Страна: США
Жанр: Драма, криминал
Продолжительность: 02:22:33

Субтитры: Русские, английские

Режиссер: Фрэнк Дарабонт
Продюссер: Ники Марвин, Лиз Глоцер, Дэвид В. Лестер
Сценарий: Фрэнк Дарабонт, Стивен Кинг

Бюджет: $25 000 000
Премьера в мире: 10 сентября 1994



В ролях: Тим Роббинс, Морган Фриман, Боб Гантон, Уильям Сэдлер, Клэнси Браун, Джил Беллоуз, Марк Ролстон, Джеймс Уайтмор

Описание: Успешный банкир Энди Дюфрейн обвинен в убийстве собственной жены и ее любовника. Оказавшись в тюрьме под названием Шоушенк, он сталкивается с жестокостью и беззаконием, царящими по обе стороны решетки. Каждый, кто попадает в эти стены, становится их рабом до конца жизни. Но Энди, вооруженный живым умом и доброй душой, отказывается мириться с приговором судьбы и начинает разрабатывать невероятно дерзкий план своего освобождения.

Качество: BD-Remux
Формат: MKV
Видео кодек: VC-1
Аудио кодек: AC3, DTS
Видео: 1920x1080 at 23.976 fps, VC-1, ~26866 kbps avg
Аудио#1: Russian: 48 kHz, AC3, 3/2 (L,C,R,l,r) + LFE ch, ~384.00 kbps avg |Двухголосый закадровый, Videogram|
Аудио#2: Russian: 48 kHz, DTS, 3/2 (L,C,R,l,r) + LFE ch, ~1536.00 kbps avg |Двухголосый закадровый, Видеофильм|
Аудио#3: Russian: 48 kHz, AC3, 2/0 (L,R) ch, ~256.00 kbps avg |Многоголосый закадровый, РТР (ТВЦ)|
Аудио#4: Russian: 48 kHz, AC3, 3/2 (L,C,R,l,r) + LFE ch, ~384.00 kbps avg |Многоголосый закадровый, LDV|
Аудио#5: Russian: 48 kHz, DTS, 3/2 (L,C,R,l,r) + LFE ch, ~1536.00 kbps avg |Многоголосый закадровый, СОЮЗ Видео|
Аудио#6: Russian: 48 kHz, DTS, 3/2 (L,C,R,l,r) + LFE ch, ~1536.00 kbps avg |Многоголосый закадровый, Киномания|
Аудио#7: Russian: 48 kHz, AC3, 2/0 (L,R) ch, ~256.00 kbps avg |Одноголосый закадровый, Сергей Визгунов|
Аудио#8: Russian: 48 kHz, AC3, 2/0 (L,R) ch, ~256.00 kbps avg |Одноголосый закадровый, Антон Алексеев|
Аудио#9: Russian: 48 kHz, AC3, 3/2 (L,C,R,l,r) + LFE ch, ~448.00 kbps avg |Одноголосый закадровый, Юрий Сербин|
Аудио#10: Russian: 48 kHz, DTS, 3/2 (L,C,R,l,r) + LFE ch, ~768.00 kbps avg |Одноголосый закадровый, Андрей Гаврилов|
Аудио#11: Russian: 48 kHz, DTS, 3/2 (L,C,R,l,r) + LFE ch, ~768.00 kbps avg |Одноголосый закадровый, Василий Горчаков|
Аудио#12: Russian: 48 kHz, DTS, 3/2 (L,C,R,l,r) + LFE ch, ~1536.00 kbps avg |Одноголосый закадровый, Юрий Живов|
Аудио#13: Ukrainian: 48 kHz, AC3, 2/0 (L,R) ch, ~256.00 kbps avg |Многоголосый закадровый, Украинский|
Аудио#14: English: 48 kHz, AC3, 2/0 (L,R) ch, ~192.00 kbps avg |Commentary by Frank Darabont|
Аудио#15: English: 48 kHz/16-bit, DTS-HD MA 5.1, ~2137.00 kbps avg |Оригинал|




Общее
Уникальный идентификатор : 209003150963168471587157080934765809800 (0x9D3C8AEDCE3A9CC68B0CEAC2705FD088)
Полное имя : E:\Побег из Шоушенка ~ The Shawshank Redemption (1994) BD-Remux.mkv
Формат : Matroska
Версия формата : Version 2
Размер файла : 38,8 Гбайт
Продолжительность : 2 ч. 22 м.
Режим общего битрейта : Переменный
Общий поток : 39,0 Мбит/сек
Дата кодирования : UTC 2012-02-19 16:32:22
Программа кодирования : mkvmerge v5.3.0 ('I could have danced') built on Feb 9 2012 10:38:07
Библиотека кодирования : libebml v1.2.3 + libmatroska v1.3.0

Видео
Идентификатор : 1
Формат : VC-1
Профиль формата : Advanced@L3
Идентификатор кодека : V_MS/VFW/FOURCC / WVC1
Идентификатор кодека/Подсказка : Microsoft
Продолжительность : 2 ч. 22 м.
Ширина : 1920 пикселей
Высота : 1080 пикселей
Соотношение сторон : 16:9
Режим частоты кадров : Постоянный
Частота кадров : 23,976 кадра/сек
Субдискретизация насыщенности : 4:2:0
Битовая глубина : 8 бит
Тип развёртки : Прогрессивная
Метод сжатия : С потерями
Заголовок : The Shawshank Redemption | 1994 | BluRay Remux [German Transfer]
Язык : English
Default : Да
Forced : Нет

Аудио #1
Идентификатор : 2
Формат : AC-3
Формат/Информация : Audio Coding 3
Расширение режима : CM (complete main)
Параметр Endianness формата : Big
Идентификатор кодека : A_AC3
Продолжительность : 2 ч. 22 м.
Вид битрейта : Постоянный
Битрейт : 384 Кбит/сек
Каналы : 6 каналов
Расположение каналов : Front: L C R, Side: L R, LFE
Частота : 48,0 КГц
Битовая глубина : 16 бит
Метод сжатия : С потерями
Размер потока : 392 Мбайт (1%)
Заголовок : AC3 5.1 384 kbps DVO №1, Videogram
Язык : Russian
Default : Да
Forced : Нет

Аудио #2
Идентификатор : 3
Формат : DTS
Формат/Информация : Digital Theater Systems
Режим : 16
Параметр Endianness формата : Big
Идентификатор кодека : A_DTS
Продолжительность : 2 ч. 22 м.
Вид битрейта : Постоянный
Битрейт : 1510 Кбит/сек
Каналы : 6 каналов
Расположение каналов : Front: L C R, Side: L R, LFE
Частота : 48,0 КГц
Битовая глубина : 24 бит
Метод сжатия : С потерями
Размер потока : 1,50 Гбайт (4%)
Заголовок : DTS 5.1 1536 kbps DVO №2, Видеофильм
Язык : Russian
Default : Нет
Forced : Нет

Аудио #3
Идентификатор : 4
Формат : AC-3
Формат/Информация : Audio Coding 3
Расширение режима : CM (complete main)
Параметр Endianness формата : Big
Идентификатор кодека : A_AC3
Продолжительность : 2 ч. 22 м.
Вид битрейта : Постоянный
Битрейт : 256 Кбит/сек
Каналы : 2 канала
Расположение каналов : Front: L R
Частота : 48,0 КГц
Битовая глубина : 16 бит
Метод сжатия : С потерями
Размер потока : 261 Мбайт (1%)
Заголовок : AC3 2.0 256 kbps MVO №1, РТР (ТВЦ)
Язык : Russian
Default : Нет
Forced : Нет

Аудио #4
Идентификатор : 5
Формат : AC-3
Формат/Информация : Audio Coding 3
Расширение режима : CM (complete main)
Параметр Endianness формата : Big
Идентификатор кодека : A_AC3
Продолжительность : 2 ч. 22 м.
Вид битрейта : Постоянный
Битрейт : 384 Кбит/сек
Каналы : 6 каналов
Расположение каналов : Front: L C R, Side: L R, LFE
Частота : 48,0 КГц
Битовая глубина : 16 бит
Метод сжатия : С потерями
Размер потока : 392 Мбайт (1%)
Заголовок : AC3 5.1 384 kbps MVO №2, LDV
Язык : Russian
Default : Нет
Forced : Нет

Аудио #5
Идентификатор : 6
Формат : DTS
Формат/Информация : Digital Theater Systems
Режим : 16
Параметр Endianness формата : Big
Идентификатор кодека : A_DTS
Продолжительность : 2 ч. 22 м.
Вид битрейта : Постоянный
Битрейт : 1509 Кбит/сек
Каналы : 6 каналов
Расположение каналов : Front: L C R, Side: L R, LFE
Частота : 48,0 КГц
Битовая глубина : 24 бит
Метод сжатия : С потерями
Размер потока : 1,50 Гбайт (4%)
Заголовок : DTS 5.1 1536 kbps MVO №3, СОЮЗ Видео
Язык : Russian
Default : Нет
Forced : Нет

Аудио #6
Идентификатор : 7
Формат : DTS
Формат/Информация : Digital Theater Systems
Режим : 16
Параметр Endianness формата : Big
Идентификатор кодека : A_DTS
Продолжительность : 2 ч. 22 м.
Вид битрейта : Постоянный
Битрейт : 1510 Кбит/сек
Каналы : 6 каналов
Расположение каналов : Front: L C R, Side: L R, LFE
Частота : 48,0 КГц
Битовая глубина : 24 бит
Метод сжатия : С потерями
Размер потока : 1,50 Гбайт (4%)
Заголовок : DTS 5.1 1536 kbps MVO №4, Киномания
Язык : Russian
Default : Нет
Forced : Нет

Аудио #7
Идентификатор : 8
Формат : AC-3
Формат/Информация : Audio Coding 3
Расширение режима : CM (complete main)
Параметр Endianness формата : Big
Идентификатор кодека : A_AC3
Продолжительность : 2 ч. 22 м.
Вид битрейта : Постоянный
Битрейт : 256 Кбит/сек
Каналы : 2 канала
Расположение каналов : Front: L R
Частота : 44,1 КГц
Битовая глубина : 16 бит
Метод сжатия : С потерями
Размер потока : 261 Мбайт (1%)
Заголовок : AC3 2.0 256 kbps AVO №1, Сергей Визгунов
Язык : Russian
Default : Нет
Forced : Нет

Аудио #8
Идентификатор : 9
Формат : AC-3
Формат/Информация : Audio Coding 3
Расширение режима : CM (complete main)
Параметр Endianness формата : Big
Идентификатор кодека : A_AC3
Продолжительность : 2 ч. 22 м.
Вид битрейта : Постоянный
Битрейт : 256 Кбит/сек
Каналы : 2 канала
Расположение каналов : Front: L R
Частота : 44,1 КГц
Битовая глубина : 16 бит
Метод сжатия : С потерями
Размер потока : 261 Мбайт (1%)
Заголовок : AC3 2.0 256 kbps AVO №2, Антон Алексеев
Язык : Russian
Default : Нет
Forced : Нет

Аудио #9
Идентификатор : 10
Формат : AC-3
Формат/Информация : Audio Coding 3
Расширение режима : CM (complete main)
Параметр Endianness формата : Big
Идентификатор кодека : A_AC3
Продолжительность : 2 ч. 22 м.
Вид битрейта : Постоянный
Битрейт : 448 Кбит/сек
Каналы : 6 каналов
Расположение каналов : Front: L C R, Side: L R, LFE
Частота : 48,0 КГц
Битовая глубина : 16 бит
Метод сжатия : С потерями
Размер потока : 457 Мбайт (1%)
Заголовок : AC3 5.1 448 kbps AVO №3, Юрий Сербин
Язык : Russian
Default : Нет
Forced : Нет

Аудио #10
Идентификатор : 11
Формат : DTS
Формат/Информация : Digital Theater Systems
Режим : 16
Параметр Endianness формата : Big
Идентификатор кодека : A_DTS
Продолжительность : 2 ч. 22 м.
Вид битрейта : Постоянный
Битрейт : 755 Кбит/сек
Каналы : 6 каналов
Расположение каналов : Front: L C R, Side: L R, LFE
Частота : 48,0 КГц
Битовая глубина : 24 бит
Метод сжатия : С потерями
Размер потока : 769 Мбайт (2%)
Заголовок : DTS 5.1 768 kbps AVO №4, Андрей Гаврилов
Язык : Russian
Default : Нет
Forced : Нет

Аудио #11
Идентификатор : 12
Формат : DTS
Формат/Информация : Digital Theater Systems
Режим : 16
Параметр Endianness формата : Big
Идентификатор кодека : A_DTS
Продолжительность : 2 ч. 22 м.
Вид битрейта : Постоянный
Битрейт : 755 Кбит/сек
Каналы : 6 каналов
Расположение каналов : Front: L C R, Side: L R, LFE
Частота : 48,0 КГц
Битовая глубина : 24 бит
Метод сжатия : С потерями
Размер потока : 769 Мбайт (2%)
Заголовок : DTS 5.1 768 kbps AVO №5, Василий Горчаков
Язык : Russian
Default : Нет
Forced : Нет

Аудио #12
Идентификатор : 13
Формат : DTS
Формат/Информация : Digital Theater Systems
Режим : 16
Параметр Endianness формата : Big
Идентификатор кодека : A_DTS
Продолжительность : 2 ч. 22 м.
Вид битрейта : Постоянный
Битрейт : 1510 Кбит/сек
Каналы : 6 каналов
Расположение каналов : Front: L C R, Side: L R, LFE
Частота : 48,0 КГц
Битовая глубина : 24 бит
Метод сжатия : С потерями
Размер потока : 1,50 Гбайт (4%)
Заголовок : DTS 5.1 1536 kbps AVO №6, Юрий Живов
Язык : Russian
Default : Нет
Forced : Нет

Аудио #13
Идентификатор : 14
Формат : AC-3
Формат/Информация : Audio Coding 3
Расширение режима : CM (complete main)
Параметр Endianness формата : Big
Идентификатор кодека : A_AC3
Продолжительность : 2 ч. 22 м.
Вид битрейта : Постоянный
Битрейт : 256 Кбит/сек
Каналы : 2 канала
Расположение каналов : Front: L R
Частота : 48,0 КГц
Битовая глубина : 16 бит
Метод сжатия : С потерями
Размер потока : 261 Мбайт (1%)
Заголовок : AC3 2.0 256 kbps MVO, Проф. закадровый
Язык : Ukrainian
Default : Нет
Forced : Нет

Аудио #14
Идентификатор : 15
Формат : AC-3
Формат/Информация : Audio Coding 3
Профиль формата : Dolby Digital
Расширение режима : CM (complete main)
Параметр Endianness формата : Big
Идентификатор кодека : A_AC3
Продолжительность : 2 ч. 22 м.
Вид битрейта : Постоянный
Битрейт : 192 Кбит/сек
Каналы : 2 канала
Расположение каналов : Front: L R
Частота : 48,0 КГц
Битовая глубина : 16 бит
Метод сжатия : С потерями
Размер потока : 196 Мбайт (0%)
Заголовок : AC3 2.0 192 kbps, Комментарии
Язык : English
Default : Нет
Forced : Нет

Аудио #15
Идентификатор : 16
Формат : DTS
Формат/Информация : Digital Theater Systems
Профиль формата : MA / Core
Режим : 16
Параметр Endianness формата : Big
Идентификатор кодека : A_DTS
Продолжительность : 2 ч. 22 м.
Вид битрейта : Переменный
Битрейт : Неизвестно / 1509 Кбит/сек
Каналы : 6 каналов
Расположение каналов : Front: L C R, Side: L R, LFE
Частота : 48,0 КГц
Битовая глубина : 16 бит
Метод сжатия : Без потерь / Lossy
Заголовок : DTS-HD MA 5.1 2137 kbps, Английский
Язык : English
Default : Нет
Forced : Нет

Текст #1
Идентификатор : 17
Формат : UTF-8
Идентификатор кодека : S_TEXT/UTF8
Идентификатор кодека/Информация : UTF-8 Plain Text
Заголовок : №1 | Киномания
Язык : Russian
Default : Да
Forced : Нет

Текст #2
Идентификатор : 18
Формат : UTF-8
Идентификатор кодека : S_TEXT/UTF8
Идентификатор кодека/Информация : UTF-8 Plain Text
Заголовок : №2 | СОЮЗ Видео
Язык : Russian
Default : Нет
Forced : Нет

Текст #3
Идентификатор : 19
Формат : UTF-8
Идентификатор кодека : S_TEXT/UTF8
Идентификатор кодека/Информация : UTF-8 Plain Text
Заголовок : №3 | Sunny-Sko (Присутствует мат)
Язык : Russian
Default : Нет
Forced : Нет

Текст #4
Идентификатор : 20
Формат : UTF-8
Идентификатор кодека : S_TEXT/UTF8
Идентификатор кодека/Информация : UTF-8 Plain Text
Заголовок : №4 | SDH
Язык : Russian
Default : Нет
Forced : Нет

Текст #5
Идентификатор : 21
Формат : UTF-8
Идентификатор кодека : S_TEXT/UTF8
Идентификатор кодека/Информация : UTF-8 Plain Text
Заголовок : SRT
Язык : English
Default : Нет
Forced : Нет

Текст #6
Идентификатор : 22
Формат : UTF-8
Идентификатор кодека : S_TEXT/UTF8
Идентификатор кодека/Информация : UTF-8 Plain Text
Заголовок : SDH (Вариант №1)
Язык : English
Default : Нет
Forced : Нет

Текст #7
Идентификатор : 23
Формат : UTF-8
Идентификатор кодека : S_TEXT/UTF8
Идентификатор кодека/Информация : UTF-8 Plain Text
Заголовок : SDH (Вариант №2)
Язык : English
Default : Нет
Forced : Нет

Меню
00:00:00.000 : en:On Trial
00:04:39.967 : en:Icy/remorseless
00:06:39.500 : en:This guy who can get it
00:10:06.800 : en:A stiff breeze and other arrivals
00:13:53.133 : en:Fresh fish
00:17:58.967 : en:Nameless
00:23:41.967 : en:First request
00:28:59.467 : en:Andy's routine
00:33:30.967 : en:Beer on the roof
00:38:48.634 : en:Just like everybody else
00:41:03.967 : en:Second request
00:42:38.133 : en:A pair of beatings
00:46:11.666 : en:Welcome back
00:48:11.633 : en:Cell toss
00:51:18.500 : en:A cottage industry
00:57:15.800 : en:Exactly what they take
01:00:23.966 : en:Brooks was here
01:05:41.966 : en:A shipment for Andy
01:07:12.666 : en:Time out for Mozart
01:10:59.466 : en:The danger of hope
01:13:48.833 : en:Parole rejection present
01:15:51.133 : en:Keeping the books
01:21:03.466 : en:A crook in prison
01:23:53.966 : en:Tommy Williams
01:29:20.966 : en:Elmo Blatch
01:32:04.999 : en:Solitary
01:35:31.466 : en:Sniper's target
01:38:22.966 : en:Catching Norton's drift
01:40:32.466 : en:A certain hay field
01:47:16.799 : en:The longest night
01:50:39.499 : en:Vanished
01:54:24.299 : en:Andy's way out
02:00:28.332 : en:His judgement cometh
02:04:01.965 : en:Not meant to be caged
02:05:43.465 : en:Rehabilitated?
02:08:18.165 : en:On the outside
02:10:05.798 : en:Honoring a promise
02:12:48.298 : en:"No good thing ever dies"
02:16:19.631 : en:A free man's dreams
02:17:59.331 : en:Dedication and End Credits
pb.wtf



Скачать Побег из Шоушенка через торрент http://pic.kartinco.top/images/6/oezcq.jpg Скачать фильм Побег из Шоушенка через торрент бесплантно в хорошем качестве Описание: Успешный банкир Энди Дюфрейн обвинен в убийстве собственной жены и ее любовника. Оказавшись в тюрьме под названием Шоушенк, он ... 9 10 9
Info! Золотая раздача, скачанное не засчитывается.
Торрент: Зарегистрирован [2014-05-15 16:12] · скачан: 1 раз
Статус: √ проверено
Размер: 38.83 GB
Как cкачать? Как скачать Побег из Шоушенка через торрент | qTorrent


>> Регистрируемся здесь <<






Отзывы и комментарии о схеме читаем и пишем здесь: ---> Отзывы и комментарии о схеме

Новые благодарочки в телеграм довольных пользователей:
скриншот   скриншот   скриншот   скриншот   скриншот

14-06-2015 16:58 Побег из Шоушенка Скачать торрент  

Артронах, встань на раздачуpb.wtf



    Дорогой пользователь! Огромная просьба, поблагодарите релизера, оцените раздачу и оставьте свои комментарий, если Вы скачали Побег из Шоушенка через торрент бесплатно! Внесите свою лепту в развитие PiratBit!
    Комментировать посты могут только пользователи прошедшие не сложную регистрацию
    Показать сообщения:    

    Побег из Шоушенка через торрент
    Скачать бесплатно Побег из Шоушенка
    Побег из Шоушенка скачать торрент
    Побег из Шоушенка смотреть онлайн
    Cкачать фильм Побег из Шоушенка бесплатно
    Побег из Шоушенка скачать торрент в хорошем качестве
    Побег из Шоушенка смотреть онлайн бесплатно в хорошем качестве


    Вы не можете начинать темы
    Вы не можете отвечать на сообщения
    Вы не можете редактировать свои сообщения
    Вы не можете удалять свои сообщения
    Вы не можете голосовать в опросах
    Вы не можете прикреплять файлы к сообщениям
    Вы можете скачивать файлы