2 сезон

iTunes

MVO

1

2 сезон

iTunes

iTunes

1 сезон

RePack

30

Новинка

ВАЖНО

ИГРА 18+

pack

RePack

MK11
pack

Легкие деньги

RePack

jed

RePack

fifa19

RePack

RDR2

RePack

NEED FOR SPEED™ PAYBACK

4 сезон

9 сезон

Бесстыжие 9 сезон

Все сериалы

все сериалы на PB.wtf

RePack

FAR CRY 5

Anonymous, добрый день, мы не успеваем собрать деньги на оплату серверов за декабрь и январь, помогите нам пожалуйста в это трудное время. В качестве благодарности мы отключим Вам всю рекламу на сайте (укажите свой ник в строку Ваше имя)!

×
  
Magnet ссылка

Окулус / Oculus (Майк Флэнеган / Mike Flanagan) [2013, США, ужасы, триллер, WEB-DLRip,Профессиональный [Дубляж - Лицензия/ iTunes] pb.wtf

Окулус через торрент pb.wtf

Размер: 700 MB | Добавлен: 6 лет 8 мес. назад | Торрент скачан:154 раза
Скачать  

14-05-2014 21:29 Окулус Скачать торрент  


Окулус / Oculus
«Хочешь жить – закрой глаза»

Год выпуска: 2013
Страна:США
Жанр:ужасы, триллер
Продолжительность:01:42:52
Перевод:Профессиональный [Дубляж - Лицензия/ iTunes]
Субтитры: Нет
Режиссер:Майк Флэнеган / Mike Flanagan

  • В ролях:

    Карен Гиллан (Kaylie Russell), Брентон Туэйтес (Tim Russell), Кэти Сакхофф (Marie Russell), Рори Кокрейн (Alan Russell), Анналиса Бассо (Young Kaylie), Гаррет Райан (Young Tim), Джеймс Лэфферти (Michael Dumont), Мигель Сандовал (Dr. Shawn Graham), Кейт Сигел (Marisol Chavez), Скотт Грэхэм (Warren), Майкл Дж. Фуртик (St. Aidan Security Guard), Кэти Паркер (Phone Store Clerk)

  • Описание:
    Смерть родителей сильно повлияла на судьбу двух осиротевших детей. По прошествии времени, в двадцатилетнем возрасте, сестра все еще продолжает так считать и хочет доказать брату, что привидение, вышедшее из зеркала, стало причиной гибели близких людей и всех случившихся последующих бед...

  • Мировая премьера:8 сентября 2013


      Качество: WEB-DLRip
      Формат: AVI
      Видео кодек: XviD
      Аудио кодек:MP3
      Видео: XviD, 720x304 (2.35:1), 813 kbps, 24 fps, 0,155 bpp
      Аудио: MP3 / 2.0 / 48 kHz / 128 kbps /


    Код:

    General
    Complete name                            : D:\Торенты\0ku1us.2014.D.WEB-DLRip.700MB.avi
    Format                                   : AVI
    Format/Info                              : Audio Video Interleave
    File size                                : 700 MiB
    Duration                                 : 1h 42mn
    Overall bit rate                         : 951 Kbps
    Writing application                      : VirtualDubMod 1.5.10.2 (build 2540/release)
    Writing library                          : VirtualDubMod build 2540/release

    Video
    ID                                       : 0
    Format                                   : MPEG-4 Visual
    Format profile                           : Advanced Simple@L5
    Format settings, BVOP                    : 2
    Format settings, QPel                    : No
    Format settings, GMC                     : No warppoints
    Format settings, Matrix                  : Custom
    Codec ID                                 : XVID
    Codec ID/Hint                            : XviD
    Duration                                 : 1h 42mn
    Bit rate                                 : 814 Kbps
    Width                                    : 720 pixels
    Height                                   : 304 pixels
    Display aspect ratio                     : 2.35:1
    Frame rate                               : 24.000 fps
    Color space                              : YUV
    Chroma subsampling                       : 4:2:0
    Bit depth                                : 8 bits
    Scan type                                : Progressive
    Compression mode                         : Lossy
    Bits/(Pixel*Frame)                       : 0.155
    Stream size                              : 599 MiB (86%)
    Writing library                          : XviD 1.2.1 (UTC 2008-12-04)

    Audio
    ID                                       : 1
    Format                                   : MPEG Audio
    Format version                           : Version 1
    Format profile                           : Layer 3
    Codec ID                                 : 55
    Codec ID/Hint                            : MP3
    Duration                                 : 1h 42mn
    Bit rate mode                            : Constant
    Bit rate                                 : 128 Kbps
    Channel(s)                               : 2 channels
    Sampling rate                            : 48.0 KHz
    Compression mode                         : Lossy
    Stream size                              : 94.2 MiB (13%)
    Alignment                                : Aligned on interleaves
    Interleave, duration                     : 42 ms (1.00 video frame)
    Interleave, preload duration             : 504 ms
    Writing library                          : LAME3.99r
    Encoding settings                        : -m s -V 4 -q 7 -lowpass 17 -b 128

    Скриншоты:

    Каталог Новинок (Фильмы-трейлеры, Игры, Сериалы, Мультфильмы)

    © Оформление by Raven
    pb.wtf



  • Скачать Окулус через торрент http://pic.kartinco.top/images/6/stazu.jpg Скачать фильм Окулус через торрент бесплантно в хорошем качестве Описание:Смерть родителей сильно повлияла на судьбу двух осиротевших детей. По прошествии времени, в двадцатилетнем возрасте, сестра все ... 9.5 10 10
    Торрент: Зарегистрирован [2014-05-14 21:31] · скачан: 154 раз
    Статус: √ проверено
    Размер: 700 MB
    Как cкачать? Как скачать Окулус через торрент | UTorrent

    % Раздел Тема Автор DL S | L
    Фильмы [HD 720p, 1080p] (Хороший звук DUB, MVO) [ 10.06 GB ] Окулус / Oculus [2013 BDRip 1080p by msltel] DUB msltel Скачать
    1 | 0
    Фильмы [HD 720p, 1080p] (Хороший звук DUB, MVO) [ 3.3 GB ] Окулус / Oculus [2013 BDRip 720p by msltel] DUB msltel Скачать
    1 | 0
    Фильмы 2013 [DVDrip, WEB-DLRip, HDrip] [ 1.37 GB ] Окулус / Oculus [2013 HDRip [ - / ] Ворон Скачать
    1 | 0
    Фильмы 2013 [DVDrip, WEB-DLRip, HDrip] [ 2.18 GB ] Окулус / Oculus [2013 BDRip-AVC от sokol_ok] Dub sokol_ok Скачать
    1 | 0
    Фильмы 2013 [DVDrip, WEB-DLRip, HDrip] [ 1.45 GB ] Окулус / Oculus [2013 BDRip-AVC от sokol_ok] Dub sokol_ok Скачать
    1 | 0
    Фильмы [HD 720p, 1080p] (Хороший звук DUB, MVO) [ 7.74 GB ] Окулус / Oculus [2013 BDRip 1080p] DUB / еnvy Скачать
    1 | 0
    Фильмы (Blu-ray, BD-Remux, HDDVD) [ 25.6 GB ] Окулус / Oculus [2013 BDRemux 1080p Russia] nikitun Скачать
    1 | 0

    28-11-2019 20:33  

    Отключить всю рекламу на сайте

      Дорогой пользователь! Огромная просьба, поблагодарите релизера, оцените раздачу и оставьте свои комментарий, если Вы скачали Окулус через торрент бесплатно! Внесите свою лепту в развитие PiratBit!
      Комментировать посты могут только пользователи прошедшие не сложную регистрацию
      Показать сообщения:    

      Окулус через торрент
      Скачать бесплатно Окулус
      Окулус скачать торрент
      Окулус смотреть онлайн
      Cкачать фильм Окулус бесплатно
      Окулус скачать торрент в хорошем качестве
      Окулус смотреть онлайн бесплатно в хорошем качестве


      Вы не можете начинать темы
      Вы не можете отвечать на сообщения
      Вы не можете редактировать свои сообщения
      Вы не можете удалять свои сообщения
      Вы не можете голосовать в опросах
      Вы не можете прикреплять файлы к сообщениям
      Вы можете скачивать файлы