Ссылка на приватное зеркало нашего сайта всего за 1$. Внимание количество ограничено!!!

2 сезон

iTunes

1 сезон

1

2 сезон

2 сезон

iTunes

1 сезон

RePack

30

Ultimate

ВАЖНО

ИГРА 18+

pack

RePack

MK11
pack

Забери бонус

RePack

jed

!!Акция!!

Alien_Rage

RePack

fifa19

RePack

Assassins Creed: Odyssey

RePack

NEED FOR SPEED™ PAYBACK

4 сезон

9 сезон

Бесстыжие 9 сезон

Все сериалы

все сериалы на PB.wtf

RePack

FAR CRY 5
  

1812: Уланская баллада (Олег Фесенко) [2012 г., приключения, DVDRip, Оригинал, лицензия] pb.wtf

1812: Уланская баллада через торрент pb.wtf

Размер: 702 MB | Добавлен: 7 лет 11 мес. назад | Торрент скачан:467 раз
Скачать  

14-12-2012 16:45 1812: Уланская баллада Скачать торрент  


«За любовь! За дружбу! За корону Российской империи!»
1812: Уланская баллада
Год выпуска: 2012
Страна: Россия
Жанр: приключения
Продолжительность: 01:35:47
Перевод: Оригинал
Тип релиза: Лицензия

Режиссер: Олег Фесенко
Продюссер: Глеб Шпригов, Олег Коваленок, Юрий Базик
Сценарий: Глеб Шпригов

Мировой рейтинг IMDB 4.40 (25)


В ролях: Сергей Безруков, Антон Соколов, Анна Чиповская, Анатолий Белый, Станислав Дужников, Валерий Николаев, Алексей Макаров, Борис Клюев, Эрик Фратичелли, Гедиминас Адомайтис

Описание: 1812 год. Накануне решающей битвы при Бородино тайный агент Наполеона похищает план сражения. Об этом становится известно Кутузову, и он посылает на перехват своих лучших улан. Путь их лежит в Польшу, где разворачивается бурный роман Наполеона с графиней Валевской...

Качество: DVDRip
Формат: AVI
Видео кодек: XviD
Аудио кодек: MP3
Видео: XviD, 887 kb/s, 720x400, 25.000 fps
Аудио#1: MP3 , 128 kb/s (2 ch), 48.0 KHz
Общее
Полное имя : D:Торенты1812.Ulanskaya.ballada.2012.O.DVDRip.700MB.avi
Формат : AVI
Формат/Информация : Audio Video Interleave
Размер файла : 702 Мбайт
Продолжительность : 1 ч. 35 м.
Общий поток : 1024 Кбит/сек
Программа кодирования : VirtualDubMod 1.5.10.2 (build 2542/release)
Библиотека кодирования : VirtualDubMod build 2542/release

Видео
Идентификатор : 0
Формат : MPEG-4 Visual
Профиль формата : Advanced Simple@L5
Параметр BVOP формата : 2
Параметр QPel формата : Нет
Параметр GMC формата : Без точки перехода
Параметр матрицы формата : Default (MPEG)
Идентификатор кодека : XVID
Идентификатор кодека/Подсказка : XviD
Продолжительность : 1 ч. 35 м.
Битрейт : 887 Кбит/сек
Ширина : 720 пикселей
Высота : 400 пикселей
Соотношение сторон : 16:9
Частота кадров : 25,000 кадров/сек
Цветовое пространство : YUV
Субдискретизация насыщенности : 4:2:0
Битовая глубина : 8 бит
Тип развёртки : Чересстрочная
Порядок развёртки : Нижнее поле первое
Метод сжатия : С потерями
Бит/(Пиксели*Кадры) : 0.123
Размер потока : 607 Мбайт (87%)
Библиотека кодирования : XviD 1.2.1 (UTC 2008-12-04)

Аудио
Идентификатор : 1
Формат : MPEG Audio
Версия формата : Version 1
Профиль формата : Layer 3
Режим : Joint stereo
Идентификатор кодека : 55
Идентификатор кодека/Подсказка : MP3
Продолжительность : 1 ч. 35 м.
Вид битрейта : Постоянный
Битрейт : 128 Кбит/сек
Каналы : 2 канала
Частота : 48,0 КГц
Метод сжатия : С потерями
Размер потока : 87,7 Мбайт (12%)
Выравнивание : Соединение по промежуткам
Продолжительность промежутка : 40 мс. (1,00 видеокадр)
Время предзагрузки промежутка : 504 мс.
Библиотека кодирования : LAME3.99r
Настройки программы : -m j -V 4 -q 2 -lowpass 17 -b 128

1812: Уланская баллада скачать торрент


pb.wtf



Скачать 1812: Уланская баллада через торрент http://i51.fastpic.ru/big/2012/1214/8e/617f44ba0980b522fc5899e03d86de8e.png Скачать фильм 1812: Уланская баллада через торрент бесплантно в хорошем качестве Описание: 1812 год. Накануне решающей битвы при Бородино тайный агент Наполеона похищает план сражения. Об этом становится известно ... 8.5 10 2
Info! Золотая раздача, скачанное не засчитывается.
Торрент: Зарегистрирован [2012-12-14 16:45] · скачан: 467 раз
Статус: √ проверено
Размер: 702 MB
Как cкачать? Как скачать 1812: Уланская баллада через торрент | qTorrent

% Раздел Тема Автор DL S | L
Наши фильмы (HD, WEB-DL 720p, 1080p) [ 5.46 GB ] 1812: Уланская баллада [2012 BDRip 720p Оригинал] Ke$h@ Скачать
1 | 0
Наши новые фильмы 2012 [ 1.46 GB ] 1812: Уланская баллада [2012 BDRip Оригинал] oleg8 Скачать
1 | 0
Наши новые фильмы 2012 [ 1.46 GB ] 1812: Уланская баллада [2012 DVDRip-AVC Оригинал лицензия] Ворон Скачать
1 | 0
Наши новые фильмы 2012 [ 1.37 GB ] 1812: Уланская баллада [2012 DVDRip Оригинал лицензия] Seedtank Скачать
1 | 0
Наши фильмы (DVD фильмы) [ 5.3 GB ] 1812: Уланская баллада [2012 DVD9] R5 voovaz Скачать
1 | 0


Последний раз редактировалось: Ворон (2012-12-14 19:27), всего редактировалось 2 раз(а)

28-11-2019 20:33  

Отключить всю рекламу на сайте

14-12-2012 19:14 1812: Уланская баллада Скачать торрент  

"новый фильм с сергеем безруковым - смотрите любой новый фильм"pb.wtf



    Дорогой пользователь! Огромная просьба, поблагодарите релизера, оцените раздачу и оставьте свои комментарий, если Вы скачали 1812: Уланская баллада через торрент бесплатно! Внесите свою лепту в развитие PiratBit!
    Комментировать посты могут только пользователи прошедшие не сложную регистрацию
    Показать сообщения:    

    1812: Уланская баллада через торрент
    Скачать бесплатно 1812: Уланская баллада
    1812: Уланская баллада скачать торрент
    1812: Уланская баллада смотреть онлайн
    Cкачать фильм 1812: Уланская баллада бесплатно
    1812: Уланская баллада скачать торрент в хорошем качестве
    1812: Уланская баллада смотреть онлайн бесплатно в хорошем качестве


    Вы не можете начинать темы
    Вы не можете отвечать на сообщения
    Вы не можете редактировать свои сообщения
    Вы не можете удалять свои сообщения
    Вы не можете голосовать в опросах
    Вы не можете прикреплять файлы к сообщениям
    Вы можете скачивать файлы