Ссылка на приватное зеркало нашего сайта всего за 1$. Внимание количество ограничено!!!

2 сезон

iTunes

1 сезон

1

2 сезон

2 сезон

iTunes

1 сезон

RePack

30

Ultimate

ВАЖНО

ИГРА 18+

pack

RePack

MK11
pack

Забери бонус

RePack

jed

!!Акция!!

Alien_Rage

RePack

fifa19

RePack

Assassins Creed: Odyssey

RePack

NEED FOR SPEED™ PAYBACK

4 сезон

9 сезон

Бесстыжие 9 сезон

Все сериалы

все сериалы на PB.wtf

RePack

FAR CRY 5
  

Вне закона (Выпуск 01-02 из 02) [Эфир от 16.02.2014] [2014 г., документальный, DVB] pb.wtf

Вне закона через торрент pb.wtf

Размер: 2.14 GB | Добавлен: 6 лет 6 мес. назад | Торрент скачан:11 раз
Скачать  

16-05-2014 12:53 Вне закона Скачать торрент  

Вне закона (Выпуск 01-02 из 02) [Эфир от 16.02.2014]
Год выпуска: 2014
Страна: Россия
Жанр: документальный
Продолжительность: 01:02:00
Перевод: Оригинал

Описание: Программа «Вне закона. Преступление и наказание» представляет собой реконструкцию событий совершённых преступлений, это симбиоз детективного расследования с художественным кино. Каждый выпуск посвящён расследованию одного из уголовных дел, приговор по которому приведён в исполнение. Основываясь на воспоминаниях очевидцев, материалах следствия и оперативных данных, в программе воссоздаётся полная картина преступления. Съёмки построены таким образом, что игровые моменты перемежаются с реальной оперативной съёмкой. Программа «Вне закона. Преступление и наказание» призывает зрителей быть не просто наблюдателями, а мысленно принять участие в расследовании, стать полноправным искателем ответов на вопросы "что", "как" и "почему", почувствовать себя в роли следователя.

Качество: DVB
Формат: MPEG-TS
Видео кодек: MPEG2
Аудио кодек: MP3
Видео: 720x576 (4:3), 25 fps, AVC (x264) ~ 4 578 Kbps, 0.446 bit/pixel
Аудио#1: 48 kHz, MPEG Layer 2, 1 ch, ~128.00 kbps avg
Релиз от: Deadmauvlad
скриншот   скриншот   скриншот   скриншот   скриншот   скриншот   скриншот   скриншот   скриншот   скриншот  

Общее
Идентификатор : 1 (0x1)
Полное имя : D:\Рипы выкладка [Deadmauvlad]\Рипы готовые\vne.zakona.SATRip.Deadmauvlad.EFIR.Ot.16.05.2014.ts
Формат : MPEG-TS
Размер файла : 2,14 Гбайт
Продолжительность : 1 ч. 2 м.
Режим общего битрейта : Переменный
Общий поток : 4932 Кбит/сек

Видео
Идентификатор : 2304 (0x900)
Идентификатор меню : 1 (0x1)
Формат : MPEG Video
Версия формата : Version 2
Профиль формата : Main@Main
Параметр BVOP формата : Да
Параметр матрицы формата : Выборочная
Параметр GOP формата : Variable
Идентификатор кодека : 2
Продолжительность : 1 ч. 2 м.
Вид битрейта : Переменный
Битрейт : 4578 Кбит/сек
Ширина : 720 пикселей
Высота : 576 пикселей
Соотношение сторон : 4:3
Частота кадров : 25,000 кадров/сек
Стандарт вещания : PAL
Цветовое пространство : YUV
Субдискретизация насыщенности : 4:2:0
Битовая глубина : 8 бит
Тип развёртки : Чересстрочная
Порядок развёртки : Верхнее поле первое
Метод сжатия : С потерями
Бит/(Пиксели*Кадры) : 0.442
Временной код первого кадра : 00:00:00:00
Оригинал временного кода : Group of pictures header
Размер потока : 1,98 Гбайт (92%)

Аудио
Идентификатор : 2305 (0x901)
Идентификатор меню : 1 (0x1)
Формат : MPEG Audio
Версия формата : Version 1
Профиль формата : Layer 2
Идентификатор кодека : 3
Продолжительность : 1 ч. 2 м.
Вид битрейта : Постоянный
Битрейт : 128 Кбит/сек
Каналы : 1 канал
Частота : 48,0 КГц
Метод сжатия : С потерями
Задержка видео : 17 мс.
Размер потока : 56,8 Мбайт (3%)
Язык : English

pb.wtf



Скачать Вне закона через торрент http://pic.kartinco.top/images/6/acmsl.jpg Скачать фильм Вне закона через торрент бесплантно в хорошем качестве Описание: Программа «Вне закона. Преступление и наказание» представляет собой реконструкцию событий совершённых преступлений, это симбиоз ... 10 10 2
Торрент: Зарегистрирован [2014-05-16 12:53] · скачан: 11 раз
Статус: √ проверено
Размер: 2.14 GB
Как cкачать? Как скачать Вне закона через торрент | qTorrent

% Раздел Тема Автор DL S | L
Отечественный шансон [ 297 MB ] Мафик & Маракеш - Любовь вне закона. Часть 1 2018 / FLAC / lossless / Шансон хип-хоп bober100 Скачать
3 | 0
Фильмы 2019-2020 [DVDrip, WEB-DLRip, HDrip] (DUB, MVO) [ 1.46 GB ] Шестеро вне закона / Призрачная шестерка / 6 Underground [2019 WEB-DLRip] - [Пифагор] Twi7ter Скачать
123 | 2
Ultra HD (UHD: 2K, 4K, 8K) — видео сверхвысокой чёткости [ 14.77 GB ] Шестеро вне закона / Призрачная шестерка / 6 Underground [2019 UHD WEBRip 2160p] DUB [Пифагор] bober100 Скачать
3 | 0
Фильмы 2019-2020 [DVDrip, WEB-DLRip, HDrip] (DUB, MVO) [ 2.2 GB ] Шестеро вне закона / Призрачная шестерка / 6 Underground [2019 WEB-DLRip] - [Пифагор] Twi7ter Скачать
69 | 0
Фильмы (WEB-DL 720p, 1080p) [ 5.06 GB ] Шестеро вне закона / 6 Underground [2019 WEBRip 720p] killermax2013 Скачать
7 | 0
Фильмы 2019-2020 [DVDrip, WEB-DLRip, HDrip] (DUB, MVO) [ 2.54 GB ] Шестеро вне закона / Призрачная шестерка / 6 Underground [2019 WEB-DLRip-AVC] DUB [Пифагор] - ExKinoRay Enigma2010 Скачать
65 | 4
Фильмы 2019-2020 [DVDrip, WEB-DLRip, HDrip] (DUB, MVO) [ 744 MB ] Шестеро вне закона / Призрачная шестерка / 6 Underground [2019 WEB-DLRip] DUB [Пифагор] bober100 Скачать
2 | 0

28-11-2019 20:33  

Отключить всю рекламу на сайте

    Дорогой пользователь! Огромная просьба, поблагодарите релизера, оцените раздачу и оставьте свои комментарий, если Вы скачали Вне закона через торрент бесплатно! Внесите свою лепту в развитие PiratBit!
    Комментировать посты могут только пользователи прошедшие не сложную регистрацию
    Показать сообщения:    

    Вне закона через торрент
    Скачать бесплатно Вне закона
    Вне закона скачать торрент
    Вне закона смотреть онлайн
    Cкачать фильм Вне закона бесплатно
    Вне закона скачать торрент в хорошем качестве
    Вне закона смотреть онлайн бесплатно в хорошем качестве


    Вы не можете начинать темы
    Вы не можете отвечать на сообщения
    Вы не можете редактировать свои сообщения
    Вы не можете удалять свои сообщения
    Вы не можете голосовать в опросах
    Вы не можете прикреплять файлы к сообщениям
    Вы можете скачивать файлы