2 сезон

iTunes

MVO

1

2 сезон

iTunes

iTunes

1 сезон

RePack

30

Новинка

ВАЖНО

ИГРА 18+

pack

RePack

MK11
pack

Легкие деньги

RePack

jed

RePack

fifa19

RePack

RDR2

RePack

NEED FOR SPEED™ PAYBACK

4 сезон

9 сезон

Бесстыжие 9 сезон

Все сериалы

все сериалы на PB.wtf

RePack

FAR CRY 5

Anonymous, доброй ночи, мы не успеваем собрать деньги на оплату серверов за декабрь и январь, помогите нам пожалуйста в это трудное время. В качестве благодарности мы отключим Вам всю рекламу на сайте (укажите свой ник в строку Ваше имя)!

×
  
Magnet ссылка

Помпеи / Pompeii (Пол У. С. Андерсон) [2014 г., приключения, боевик, драма, мелодрама, BDRip 1080p, Дубляж + Оригинал] Анаглиф (Дюбуа) pb.wtf

Помпеи через торрент pb.wtf

Размер: 7.17 GB | Добавлен: 6 лет 8 мес. назад | Торрент скачан:106 раз
Скачать  

16-05-2014 13:29 Помпеи Скачать торрент  

Помпеи / Pompeii
Год выпуска: 2014
Страна: Канада, Германия
Жанр: приключения, боевик, драма, мелодрама
Продолжительность: 01:44:59
Перевод: Дубляж ( iTunes ) + Оригинал

Режиссер: Пол У. С. Андерсон
Продюссер: Пол У. С. Андерсон, Джереми Болт, Дон Кармоди
Сценарий: Джанет Скотт Бэчлер, Ли Бэчлер, Майкл Роберт Джонсон

Бюджет: $100 000 000

Премьера в мире: 18 февраля 2014



В ролях: Саша Ройз, Кэрри-Энн Мосс, Адевале Акинойе-Агбаже, Эмили Браунинг, Джессика Лукас, Кифер Сазерленд, Кит Харингтон, Джо Пинг, Джаред Харрис, Карри Грэм

Описание: История любви раба Майло и благородной Кассии, обрученной с римским сенатором, на фоне извержения Везувия, которое навсегда стерло с лица земли древнеримский город Помпеи…

Доп. информация: Формат 3D: Анаглиф (Дюбуа)



Качество: BDRip 1080p
Формат: MKV
Видео кодек: H.264
Аудио кодек: AC3
Видео: x264, 1920 x 1080 (16:9), 8751 kbps, 23,976 fps, ( 0.176 bpp)
Аудио#1: Русский / AC3 / 48 KHz / 5.1 ch / 384 Kbps ( iTunes )
Аудио#2: Английский / AC3 / 48 KHz / 5.1 ch / 640 Kbps



скриншот   скриншот   скриншот   скриншот   скриншот   скриншот  
Общее
Уникальный идентификатор : 242944942940097189657583407910115729294 (0xB6C57E79B499F318BF64E8328E5DDF8E)
Полное имя : D: Pompeii.3D(2014)(Anaglyph_Dubois).mkv
Формат : Matroska
Версия формата : Version 4 / Version 2
Размер файла : 7,17 Гбайт
Продолжительность : 1 ч. 44 м.
Общий поток : 9774 Кбит/сек
Название фильма : Помпеи | Pompeii 3D (2014) BDRip 1080p(Anaglyph_Dubois)(Crop) | iTunes
Дата кодирования : UTC 2014-05-16 10:39:45
Программа кодирования : mkvmerge v6.2.0 ('Promised Land') built on Apr 28 2013 12:22:01
Библиотека кодирования : libebml v1.3.0 + libmatroska v1.4.0

Видео
Идентификатор : 1
Формат : AVC
Формат/Информация : Advanced Video Codec
Профиль формата : High@L4.1
MultiView_Count : 2
MultiView_Layout : Anaglyph (cyan/red)
Параметр CABAC формата : Да
Параметр ReFrames формата : 4 кадра
Идентификатор кодека : V_MPEG4/ISO/AVC
Продолжительность : 1 ч. 44 м.
Битрейт : 8751 Кбит/сек
Ширина : 1920 пикселей
Высота : 1080 пикселей
Соотношение сторон : 16:9
Режим частоты кадров : Постоянный
Частота кадров : 23,976 кадра/сек
Цветовое пространство : YUV
Субдискретизация насыщенности : 4:2:0
Битовая глубина : 8 бит
Тип развёртки : Прогрессивная
Бит/(Пиксели*Кадры) : 0.176
Размер потока : 6,27 Гбайт (88%)
Заголовок : Pompeii 3D (2014) BDRip 1080p(Anaglyph_Dubois)(Crop).mkv
Библиотека кодирования : x264 core 130 r2273 b3065e6
Настройки программы : cabac=1 / ref=4 / deblock=1:-1:-1 / analyse=0x3:0x113 / me=umh / subme=9 / psy=1 / psy_rd=1.00:0.15 / mixed_ref=1 / me_range=32 / chroma_me=1 / trellis=1 / 8x8dct=1 / cqm=0 / deadzone=21,11 / fast_pskip=1 / chroma_qp_offset=-3 / threads=3 / lookahead_threads=1 / sliced_threads=0 / nr=0 / decimate=1 / interlaced=0 / bluray_compat=0 / constrained_intra=0 / bframes=4 / b_pyramid=2 / b_adapt=2 / b_bias=0 / direct=3 / weightb=1 / open_gop=0 / weightp=2 / keyint=250 / keyint_min=23 / scenecut=40 / intra_refresh=0 / rc_lookahead=50 / rc=2pass / mbtree=1 / bitrate=8751 / ratetol=1.0 / qcomp=0.60 / qpmin=0 / qpmax=69 / qpstep=4 / cplxblur=20.0 / qblur=0.5 / ip_ratio=1.40 / aq=1:1.00
Язык : English
Default : Да
Forced : Нет

Аудио #1
Идентификатор : 2
Формат : AC-3
Формат/Информация : Audio Coding 3
Расширение режима : CM (complete main)
Параметр Endianness формата : Big
Идентификатор кодека : A_AC3
Продолжительность : 1 ч. 44 м.
Вид битрейта : Постоянный
Битрейт : 384 Кбит/сек
Каналы : 6 каналов
Расположение каналов : Front: L C R, Side: L R, LFE
Частота : 48,0 КГц
Битовая глубина : 16 бит
Метод сжатия : С потерями
Размер потока : 288 Мбайт (4%)
Заголовок : iTunes
Язык : Russian
Default : Да
Forced : Нет

Аудио #2
Идентификатор : 3
Формат : AC-3
Формат/Информация : Audio Coding 3
Расширение режима : CM (complete main)
Параметр Endianness формата : Big
Идентификатор кодека : A_AC3
Продолжительность : 1 ч. 44 м.
Вид битрейта : Постоянный
Битрейт : 640 Кбит/сек
Каналы : 6 каналов
Расположение каналов : Front: L C R, Side: L R, LFE
Частота : 48,0 КГц
Битовая глубина : 16 бит
Метод сжатия : С потерями
Размер потока : 481 Мбайт (7%)
Заголовок : Original
Язык : English
Default : Нет
Forced : Нет

pb.wtf



Скачать Помпеи через торрент http://pic.kartinco.top/images/6/676u5.jpg Скачать фильм Помпеи через торрент бесплантно в хорошем качестве Описание: История любви раба Майло и благородной Кассии, обрученной с римским сенатором, на фоне извержения Везувия, которое навсегда ... 10 10 4
Info! Серебряная раздача, засчитывается только 50% скачанного.
Торрент: Зарегистрирован [2014-05-16 13:29] · скачан: 106 раз
Статус: √ проверено
Размер: 7.17 GB
Как cкачать? Как скачать Помпеи через торрент | UTorrent

% Раздел Тема Автор DL S | L
Документальные фильмы и телепередачи [ 1.75 GB ] Viasat History: Новые секреты Помпеи / Pompeii: New Secrets Revealed [2016 Документальный HDTVRip 1080p] Armstrong Скачать
1 | 0
Документальные фильмы и телепередачи [ 819 MB ] Viasat History: Новые секреты Помпеи / Pompeii: New Secrets Revealed [2016 Документальный HDTVRip] Armstrong Скачать
1 | 0
3D Видео (48-60 fps) [ 15.69 GB ] Помпеи / Pompeii [2014 Германия 3D BDRip 1080p / 60 FPSГоризонтальная анаморфная стереопара ] Tiberiumsun69 Скачать
1 | 0
Фильмы 2013 [DVDrip, WEB-DLRip, HDrip] [ 1.46 GB ] Помпеи / Pompeii [2013 HDRip-AVC White Smoke Скачать
1 | 0
Фильмы 2014 [DVDrip, WEB-DLRip, HDrip] [ 1.37 GB ] Помпеи / Pompeii [2014 Германия HDRip [ - / ] Ворон Скачать
1 | 0
Фильмы 2014 [DVDrip, WEB-DLRip, HDrip] [ 2.17 GB ] Помпеи / Pompeii [2014 BDRip ] coc900 Скачать
1 | 0
3D Фильмы [ 10.68 GB ] Помпеи 3D / Pompeii 3D [ 2014 Германия BDRip1080p ] DUB GEKADOL Скачать
1 | 0

28-11-2019 20:33  

Отключить всю рекламу на сайте

    Дорогой пользователь! Огромная просьба, поблагодарите релизера, оцените раздачу и оставьте свои комментарий, если Вы скачали Помпеи через торрент бесплатно! Внесите свою лепту в развитие PiratBit!
    Комментировать посты могут только пользователи прошедшие не сложную регистрацию
    Показать сообщения:    

    Помпеи через торрент
    Скачать бесплатно Помпеи
    Помпеи скачать торрент
    Помпеи смотреть онлайн
    Cкачать фильм Помпеи бесплатно
    Помпеи скачать торрент в хорошем качестве
    Помпеи смотреть онлайн бесплатно в хорошем качестве


    Вы не можете начинать темы
    Вы не можете отвечать на сообщения
    Вы не можете редактировать свои сообщения
    Вы не можете удалять свои сообщения
    Вы не можете голосовать в опросах
    Вы не можете прикреплять файлы к сообщениям
    Вы можете скачивать файлы