>

7.4

iTunes

7.4

2 сезон

9.4

1 сезон

1

7.4

2 сезон

7.2

iTunes

6.0

MVO

13

6.1

iTunes

8.3

Пиратка

30

ULTIMATE

pack

9.9

Лицензия

ВАЖНО

ИГРА 18+

pack

7.3

RePack

MK11

7.7

RePack

jed

7.8

RePack

fifa19

8.5

RePack

RDR2

RePack

NEED FOR SPEED™ PAYBACK

1 сезон

9 сезон

Бесстыжие 9 сезон

Все сериалы

все сериалы на PB.wtf

RePack

FAR CRY 5

Anonymous, доброе утро, мы катастрофически не успеваем собрать деньги на оплату серверов, помогите нам пожалуйста 5,10,15р., для нас важна любая помощь . В качестве благодарности мы отключим Вам всю рекламу на сайте (укажите свой ник в строку Ваше имя)!

×
  
Magnet ссылка

Анаконда / Anaconda (Луис Ллоса / Luis Llosa ) [1997 г., боевик, триллер, приключения, HDRip] [AVO] (А.Гаврилов) pb.wtf

Анаконда через торрент pb.wtf

Размер: 1.46 GB | Добавлен: 7 лет 8 мес. назад | Торрент скачан:68 раз
Смотреть онлайн Анаконда | Скачать    Ребята, помогите собрать деньги на оплату серверов!!!

17-05-2014 06:21 Анаконда Скачать торрент  

Анаконда / Anaconda«Вы не сможете кричать, если нечем дышать.»
Год выпуска: 1997
Страна: США, Бразилия, Перу
Жанр: боевик, триллер, приключения
Продолжительность: 01:29:20
Перевод: Авторский (одноголосый, закадровый) [А.Гаврилов]
Субтитры: нет

Режиссер: Луис Ллоса / Luis Llosa

В ролях: Дженнифер Лопез, Айс Кьюб, Джон Войт, Эрик Штольц, Джонатан Хайд, Оуэн Уилсон, Кари Вурер, Винсент Кастелланос, Дэнни Трехо, Фрэнк Уэлкер
Описание: Команда исследователей отправляется на поиски затерянных индейских племен в самое сердце таинственных джунглей Амазонки. Наслаждаясь пейзажами великой реки, они не подозревают, что их проводник — сумасшедший охотник, помешавшийся на идее поймать гигантскую змею.
Никто не верит его рассказам о мистическом хищнике, пока не появляется первая жертва, и их путешествие превращается в борьбу за выживание. Анаконда не ждет охотников, она сама — охотник.

Качество: HDRip [Исх. BDRip 1080]
Формат: AVI
Видео кодек: XviD
Аудио кодек: AC3
Видео: 720x304 (2.37:1), 23.976 fps, XviD build 50 ~1949 kbps avg, 0.37 bit/pixel
Аудио: 48 kHz, AC3 Dolby Digital, 3/2 (L,C,R,l,r) + LFE ch, ~384 kbps
Для съёмки использовались с десяток живых змей, две механические змеи весом под тонну и, разумеется, неисчислимое количество виртуальных.
General
Complete name : E:\INTERNET\Anaconda.avi
Format : AVI
Format/Info : Audio Video Interleave
File size : 1.46 GiB
Duration : 1h 29mn
Overall bit rate : 2 343 Kbps

Video
ID : 0
Format : MPEG-4 Visual
Format profile : Advanced Simple@L5
Format settings, BVOP : 1
Format settings, QPel : No
Format settings, GMC : No warppoints
Format settings, Matrix : Default (MPEG)
Codec ID : XVID
Codec ID/Hint : XviD
Duration : 1h 29mn
Bit rate : 1 857 Kbps
Width : 720 pixels
Height : 304 pixels
Display aspect ratio : 2.35:1
Frame rate : 23.976 fps
Color space : YUV
Chroma subsampling : 4:2:0
Bit depth : 8 bits
Scan type : Progressive
Compression mode : Lossy
Bits/(Pixel*Frame) : 0.354
Stream size : 1.16 GiB (79%)
Writing library : XviD 1.2.1 (UTC 2008-12-04)

Audio
ID : 1
Format : AC-3
Format/Info : Audio Coding 3
Mode extension : CM (complete main)
Codec ID : 2000
Duration : 1h 29mn
Bit rate mode : Constant
Bit rate : 384 Kbps
Channel(s) : 6 channels
Channel positions : Front: L C R, Side: L R, LFE
Sampling rate : 48.0 KHz
Bit depth : 16 bits
Compression mode : Lossy
Delay relative to video : 1s 500ms
Stream size : 245 MiB (16%)
Alignment : Split accross interleaves
pb.wtf



Скачать Анаконда через торрент http://i64.fastpic.ru/big/2014/0514/cc/ea92bf80c631da0edabc0862170d2fcc.jpg Скачать, смотреть онлайн Анаконда бесплантно в хорошем качестве Описание: Команда исследователей отправляется на поиски затерянных индейских племен в самое сердце таинственных джунглей Амазонки. ... 9.8 10 4
Торрент: Зарегистрирован [2014-05-17 06:21] · скачан: 68 раз
Статус: √ проверено
Размер: 1.46 GB
Как cкачать? Как скачать Анаконда через торрент | UTorrent

% Раздел Тема Автор DL S | L
Фильмы [HD 720p, 1080p] (Хороший звук DUB, MVO) [ 7.59 GB ] Анаконда 2: Охота за проклятой орхидеей / Anacondas: The Hunt for the Blood Orchid [2004 BDRip 720p] DUB 2xMVO 2xDVO 2xAVO - KORSAR lesnik125 Скачать
1 | 0
National Geographic [ 3.17 GB ] National Geographic. Анаконда. Тихий убийца / Anaconda. Silent killer [2014 Документальный HDTV ] Бумер Скачать
2 | 0
Фильмы (WEB-DL 720p, 1080p) [ 3.24 GB ] Озеро страха: Анаконда / Lake Placid vs. Anaconda [2015 WEB-DLRip 720p многоголосый] костя19862905 Скачать
1 | 0
Этнические порно фильмы [ 1.11 GB ] Мама - Анаконда / Anaconda Mama [2013 All Sex Interracial Big Dicks. DVDRip] Pir@tya2010 Скачать
1 | 0
Этнические порно фильмы [ 1.37 GB ] Анаконда и Маленькие Мамочки #9 / Anacondas And Lil Mamas 9 [2012 Hardcore Interracial Big Dicks All Sex DVDRip Оригинал] SKAV Скачать
1 | 0
Фильмы до 2000 г. [ 1.45 GB ] Анаконда / Anaconda [1997 BDRip DUB лицензия] vanya110 Скачать
1 | 0
Фильмы 2001-2005 [ 1.48 GB ] Анаконда 2: Охота за проклятой орхидеей / Anacondas: The Hunt for the Blood Orchid [2004 HDRip ] wowan2011 Скачать
1 | 0

28-11-2019 20:33  

Отключить всю рекламу на сайте

17-05-2014 09:24 Анаконда Скачать торрент  

Не Дженнифер Лопез, А Лопес.

С грамматикой плохо.pb.wtf



17-05-2014 10:23 Анаконда Скачать торрент  

Air Jordan писал(а):

Не Дженнифер Лопез, А Лопес.

С грамматикой плохо.

Вообще то все правильно, вот смотрим http://www.kinopoisk.ru/film/3959/pb.wtf



18-05-2014 13:36 Анаконда Скачать торрент  

killermax2013,

Ничего неправильно.pb.wtf



18-05-2014 14:23 Анаконда Скачать торрент  

Air Jordan писал(а):

killermax2013,

Ничего неправильно.

мне фиолетово как то :rofle: инфа с кинопоиска браласьpb.wtf



    Дорогой пользователь! Огромная просьба, поблагодарите релизера, оцените раздачу и оставьте свои комментарий, если Вы скачали Анаконда через торрент бесплатно!
    Комментировать посты могут только пользователи прошедшие не сложную регистрацию
    Показать сообщения:    

    Анаконда через торрент
    Скачать бесплатно Анаконда
    Анаконда скачать торрент
    Анаконда смотреть онлайн
    Cкачать фильм Анаконда бесплатно
    Анаконда скачать торрент в хорошем качестве
    Анаконда смотреть онлайн бесплатно в хорошем качестве


    Вы не можете начинать темы
    Вы не можете отвечать на сообщения
    Вы не можете редактировать свои сообщения
    Вы не можете удалять свои сообщения
    Вы не можете голосовать в опросах
    Вы не можете прикреплять файлы к сообщениям
    Вы можете скачивать файлы