Ссылка на приватное зеркало нашего сайта всего за 1$. Внимание количество ограничено!!!

2 сезон

iTunes

1 сезон

1

2 сезон

2 сезон

iTunes

1 сезон

RePack

30

Ultimate

ВАЖНО

ИГРА 18+

pack

RePack

MK11
pack

Забери бонус

RePack

jed

!!Акция!!

Alien_Rage

RePack

fifa19

RePack

Assassins Creed: Odyssey

RePack

NEED FOR SPEED™ PAYBACK

4 сезон

9 сезон

Бесстыжие 9 сезон

Все сериалы

все сериалы на PB.wtf

RePack

FAR CRY 5
  

Лихорадка джунглей / Jungle Fever (Спайк Ли / Spike Lee) [1991, США, драма, мелодрама, HDTVRip 720p] MVO + AVO [Михалёв] + Original pb.wtf

Лихорадка джунглей через торрент pb.wtf

Размер: 6.8 GB | Добавлен: 6 лет 6 мес. назад | Торрент скачан:28 раз
Скачать  

17-05-2014 11:06 Лихорадка джунглей Скачать торрент  

Лихорадка джунглей / Jungle Fever
Черный,Белый,Желтый,Все мы люди!!!


  • Год выпуска: 1991
  • Страна: США
  • Жанр: драма, мелодрама
  • Продолжительность: 02:11:50
  • Перевод: Профессиональный (многоголосый, закадровый)
  • Субтитры: Eng
  • Режиссер: Спайк Ли / Spike Lee
  • В ролях:

    Уэсли Снайпс (Flipper Purify), Аннабелла Шиорра (Angie Tucci), Спайк Ли (Cyrus), Осси Дэвис (The Good Reverend Doctor Purify), Руби Ди (Lucinda Purify), Сэмюэл Л. Джексон (Gator Purify), Лонетт МакКи (Drew), Джон Туртурро (Paulie Carbone), Фрэнк Винсент (Mike Tucci), Энтони Куинн (Lou Carbone), Холли Берри (Vivian), Тайра Феррелл (Orin Goode)

  • Описание:
    Жил-был преуспевающий архитектор по имени Флиппер Пьюрифай. Все в жизни Флиппера складывалось как надо: красавица-жена, интересная работа, преданные друзья... О чем, казалось бы, еще можно мечтать молодому, привлекательному человеку?
    Но все разительными образом изменилось в тот момент, когда в офисе Флиппера появилась новая сотрудница - очаровательная Энджи. Бастионы верного мужа пали, и чернокожий счастливчик Флиппер сдался на милость белолицей победительнице, буквально утонув в ее прекрасных глазах.
    То была встреча с самой Судьбой, но госпожа эта никогда и ничего не гарантирует...

  • Рейтинг
    kinopoisk.ru: 7.097
    imdb.com: 6.50
    MPAA: R - Лицам до 17 лет обязательно присутствие взрослого
  • Качество: HDTVRip 720p
  • Формат: MKV
  • Видео кодек: AVC
  • Аудио кодек: AC3
  • Видео: AVC, 1280x688 (1.860), 6610 kbps, 23,976 fps, 0,313 bpp
  • Аудио №1: русский / AC3 / 2.0 / 48 kHz / 192 kbps / 16 bit |Многоголосный закадровый|
  • Аудио №2: русский / AC3 / 2.0 / 48 kHz / 192 kbps / 16 bit |Михалев|
  • Аудио №3: английский / AC3 / 2.0 / 48 kHz / 384 kbps / 16 bit ORIGINAL
  • Релиз от: ஐ-Best is the Best-ஐ
    General
    Unique ID : 253320968522207857732421592734204066530 (0xBE93D808A3662337AD79BEDCD0AE7AE2)
    Complete name : F:\Jungle.Fever.1991.HDTV.720p.Rus.Eng.mkv
    Format : Matroska
    Format version : Version 1
    File size : 6.80 GiB
    Duration : 2h 11mn
    Overall bit rate : 7 382 Kbps
    Encoded date : UTC 2010-06-09 12:21:25
    Writing application : mkvmerge v2.4.0 ('Fumbling Towards Ecstasy') built on Oct 11 2008 20:13:15
    Writing library : libebml v0.7.7 + libmatroska v0.8.1

    Video
    ID : 1
    Format : AVC
    Format/Info : Advanced Video Codec
    Format profile : High@L5.1
    Format settings, CABAC : Yes
    Format settings, ReFrames : 5 frames
    Codec ID : V_MPEG4/ISO/AVC
    Duration : 2h 11mn
    Bit rate : 6 610 Kbps
    Width : 1 280 pixels
    Height : 688 pixels
    Display aspect ratio : 1.860
    Frame rate : 23.976 fps
    Color space : YUV
    Chroma subsampling : 4:2:0
    Bit depth : 8 bits
    Scan type : Progressive
    Bits/(Pixel*Frame) : 0.313
    Stream size : 5.96 GiB (88%)
    Writing library : x264 core 58 r772M fddef04
    Encoding settings : cabac=1 / ref=5 / deblock=1:0:0 / analyse=0x3:0x133 / me=umh / subme=7 / me-prepass=0 / brdo=1 / mixed_ref=1 / me_range=16 / chroma_me=1 / trellis=1 / 8x8dct=1 / cqm=0 / deadzone=21,11 / chroma_qp_offset=0 / threads=6 / nr=0 / decimate=1 / mbaff=0 / bframes=3 / b_pyramid=1 / b_adapt=1 / b_bias=0 / direct=3 / wpredb=1 / bime=1 / keyint=250 / keyint_min=25 / scenecut=40(pre) / rc=2pass / bitrate=6610 / ratetol=1.0 / rceq='blurCplx^(1-qComp)' / qcomp=1.00 / qpmin=10 / qpmax=51 / qpstep=4 / cplxblur=20.0 / qblur=0.5 / ip_ratio=1.40 / pb_ratio=1.30 / aq=1:0.5:13.0
    Language : English
    Default : Yes
    Forced : No

    Audio #1
    ID : 2
    Format : AC-3
    Format/Info : Audio Coding 3
    Mode extension : CM (complete main)
    Codec ID : A_AC3
    Duration : 2h 11mn
    Bit rate mode : Constant
    Bit rate : 192 Kbps
    Channel(s) : 2 channels
    Channel positions : Front: L R
    Sampling rate : 48.0 KHz
    Bit depth : 16 bits
    Compression mode : Lossy
    Stream size : 181 MiB (3%)
    Title : Zakadr
    Language : Russian
    Default : Yes
    Forced : No

    Audio #2
    ID : 3
    Format : AC-3
    Format/Info : Audio Coding 3
    Mode extension : CM (complete main)
    Codec ID : A_AC3
    Duration : 2h 11mn
    Bit rate mode : Constant
    Bit rate : 192 Kbps
    Channel(s) : 2 channels
    Channel positions : Front: L R
    Sampling rate : 48.0 KHz
    Bit depth : 16 bits
    Compression mode : Lossy
    Stream size : 181 MiB (3%)
    Title : Mihalev
    Language : Russian
    Default : No
    Forced : No

    Audio #3
    ID : 4
    Format : AC-3
    Format/Info : Audio Coding 3
    Mode extension : CM (complete main)
    Codec ID : A_AC3
    Duration : 2h 11mn
    Bit rate mode : Constant
    Bit rate : 384 Kbps
    Channel(s) : 2 channels
    Channel positions : Front: L R
    Sampling rate : 48.0 KHz
    Bit depth : 16 bits
    Compression mode : Lossy
    Stream size : 362 MiB (5%)
    Title : English
    Language : English
    Default : No
    Forced : No

    Text
    ID : 5
    Format : UTF-8
    Codec ID : S_TEXT/UTF8
    Codec ID/Info : UTF-8 Plain Text
    Title : English
    Language : English
    Default : No
    Forced : No

    Скриншоты:


    pb.wtf



  • Скачать Лихорадка джунглей через торрент http://pic.kartinco.top/new/img/2014-05/17/365bohsr092otiy6v2au96x3p.png Скачать фильм Лихорадка джунглей через торрент бесплантно в хорошем качестве Описание: Жил-был преуспевающий архитектор по имени Флиппер Пьюрифай. Все в жизни Флиппера складывалось как надо: красавица-жена, ... 10 10 6
    Info! Серебряная раздача, засчитывается только 50% скачанного.
    Торрент: Зарегистрирован [2014-05-17 11:06] · скачан: 28 раз
    Статус: √ проверено
    Размер: 6.8 GB
    Как cкачать? Как скачать Лихорадка джунглей через торрент | qTorrent

    28-11-2019 20:33  

    Отключить всю рекламу на сайте

      Дорогой пользователь! Огромная просьба, поблагодарите релизера, оцените раздачу и оставьте свои комментарий, если Вы скачали Лихорадка джунглей через торрент бесплатно! Внесите свою лепту в развитие PiratBit!
      Комментировать посты могут только пользователи прошедшие не сложную регистрацию
      Показать сообщения:    

      Лихорадка джунглей через торрент
      Скачать бесплатно Лихорадка джунглей
      Лихорадка джунглей скачать торрент
      Лихорадка джунглей смотреть онлайн
      Cкачать фильм Лихорадка джунглей бесплатно
      Лихорадка джунглей скачать торрент в хорошем качестве
      Лихорадка джунглей смотреть онлайн бесплатно в хорошем качестве


      Вы не можете начинать темы
      Вы не можете отвечать на сообщения
      Вы не можете редактировать свои сообщения
      Вы не можете удалять свои сообщения
      Вы не можете голосовать в опросах
      Вы не можете прикреплять файлы к сообщениям
      Вы можете скачивать файлы