Ссылка на приватное зеркало всего за 1$. Внимание количество ограничено!!!

iTunes

iTunes

iTunes

1

iTunes

iTunes

iTunes

iTunes

iTunes

30
pack

$ от Little Big

ВАЖНО

!!Акция!!

Alien_RageХит недели

RePack

Resident Evil 21

ИГРА 18+

pack

RePack

jed

!!Акция!!

Alien_Rage

RePack

fifa19

RePack

Assassins Creed: Odyssey

RePack

NEED FOR SPEED™ PAYBACK

4 сезон

9 сезон

Бесстыжие 9 сезон

Все сериалы

все сериалы на PB.wtf

RePack

FAR CRY 5
  

Фанат / The Fan (Тони Скотт / Tony Scott) [1996, США, триллер, драма, спорт, HDTVRip 720,Профессиональный (многоголосый, закадровый) pb.wtf

Фанат через торрент pb.wtf

Размер: 6.59 GB | Добавлен: 6 лет 1 мес. назад | Торрент скачан:38 раз
Скачать  

17-05-2014 15:07 Фанат Скачать торрент  

Фанат / The Fan
«У всех фанатов есть главный фаворит. У фаворита - есть главная цель»


  • Год выпуска: 1996
  • Страна: США
  • Жанр: триллер, драма, спорт
  • Продолжительность: 01:51:58
  • Перевод: Профессиональный (многоголосый, закадровый)
  • Субтитры: Rus
  • Режиссер: Тони Скотт / Tony Scott
  • В ролях:

    Роберт Де Ниро (Gil Renard), Уэсли Снайпс (Bobby Rayburn), Эллен Баркин (Jewel Stern), Джон Легуизамо (Manny), Бенисио Дель Торо (Juan Primo), Патти Д’Арбанвиль (Ellen Renard), Крис Малки (Tim), Эндрю Дж. Ферчланд (Richie Renard), Брэндон Хэммонд (Sean Rayburn), Чарльз Хэллахан (Coop), Дэн Батлер (Garrity), Курт Фуллер (Bernie)

  • Описание:
    Звезда бейсбола Бобби Рейберн переходит в команду «San Francisco Giants». Теперь он находится под пристальным вниманием не только репортеров и телекамер, но и маниакально любящего бейсбол Джила Рейнарда, болеющего за «Giants». И когда в новой команде дела у Бобби идут из рук вон плохо, Джил решает принять меры...
  • Рейтинг
    kinopoisk.ru: 7.120 (4236)
    imdb.com: 5.80 (32 823)
    MPAA: R - Лицам до 17 лет обязательно присутствие взрослого
  • Качество: HDTVRip 720
  • Формат: MKV
  • Видео кодек: AVC
  • Аудио кодек: AC3
  • Видео: AVC, 1280x544 (2.35:1), 6184 kbps, 25 fps, 0,355 bpp
  • Аудио №1: русский / AC3 / 5.1 / 48 kHz / 448 kbps / 16 bit |Многоголосный Закдр.|
  • Аудио №2: русский / AC3 / 5.1 / 48 kHz / 448 kbps / 16 bit |Двух Голосный|
  • Аудио №3: русский / AC3 / 5.1 / 48 kHz / 448 kbps / 16 bit |Ю.Живов|
  • Аудио №4: русский / AC3 / 5.1 / 48 kHz / 448 kbps / 16 bit |А.Гаврилов|
  • Аудио №5: английский / AC3 / 5.1 / 48 kHz / 448 kbps / 16 bit Original
  • Релиз от: ஐ-Best is the Best-ஐ
    General
    Unique ID : 171858891576337656653128725685961563968 (0x814AD18C778F59CBA1AB61FC76491F40)
    Complete name : F:\The.Fan.1996.HDTVRip.720p.mkv
    Format : Matroska
    Format version : Version 2
    File size : 6.59 GiB
    Duration : 1h 51mn
    Overall bit rate : 8 425 Kbps
    Encoded date : UTC 2011-12-06 19:00:06
    Writing application : mkvmerge v4.4.0 ('Die Wiederkehr') сборка от Oct 31 2010 21:52:48
    Writing library : libebml v1.0.0 + libmatroska v1.0.0

    Video
    ID : 1
    Format : AVC
    Format/Info : Advanced Video Codec
    Format profile : High@L4.1
    Format settings, CABAC : Yes
    Format settings, ReFrames : 9 frames
    Codec ID : V_MPEG4/ISO/AVC
    Duration : 1h 51mn
    Bit rate : 6 184 Kbps
    Width : 1 280 pixels
    Height : 544 pixels
    Display aspect ratio : 2.35:1
    Frame rate : 25.000 fps
    Color space : YUV
    Chroma subsampling : 4:2:0
    Bit depth : 8 bits
    Scan type : Progressive
    Bits/(Pixel*Frame) : 0.355
    Stream size : 4.71 GiB (71%)
    Writing library : x264 core 119 r2106 07efeb4
    Encoding settings : cabac=1 / ref=9 / deblock=1:-2:-3 / analyse=0x3:0x133 / me=umh / subme=10 / psy=1 / psy_rd=1.00:0.00 / mixed_ref=1 / me_range=32 / chroma_me=1 / trellis=2 / 8x8dct=1 / cqm=0 / deadzone=21,11 / fast_pskip=1 / chroma_qp_offset=-2 / threads=6 / sliced_threads=0 / nr=0 / decimate=1 / interlaced=0 / bluray_compat=0 / constrained_intra=0 / bframes=6 / b_pyramid=2 / b_adapt=2 / b_bias=0 / direct=3 / weightb=1 / open_gop=0 / weightp=2 / keyint=250 / keyint_min=25 / scenecut=40 / intra_refresh=0 / rc_lookahead=40 / rc=2pass / mbtree=1 / bitrate=6184 / ratetol=1.0 / qcomp=0.60 / qpmin=10 / qpmax=51 / qpstep=4 / cplxblur=20.0 / qblur=0.5 / vbv_maxrate=50000 / vbv_bufsize=50000 / nal_hrd=none / ip_ratio=1.40 / aq=1:1.00
    Language : English
    Default : Yes
    Forced : Yes

    Audio #1
    ID : 2
    Format : AC-3
    Format/Info : Audio Coding 3
    Mode extension : CM (complete main)
    Codec ID : A_AC3
    Duration : 1h 51mn
    Bit rate mode : Constant
    Bit rate : 448 Kbps
    Channel(s) : 6 channels
    Channel positions : Front: L C R, Side: L R, LFE
    Sampling rate : 48.0 KHz
    Bit depth : 16 bits
    Compression mode : Lossy
    Stream size : 359 MiB (5%)
    Title : MVO
    Language : Russian
    Default : Yes
    Forced : Yes

    Audio #2
    ID : 3
    Format : AC-3
    Format/Info : Audio Coding 3
    Mode extension : CM (complete main)
    Codec ID : A_AC3
    Duration : 1h 51mn
    Bit rate mode : Constant
    Bit rate : 448 Kbps
    Channel(s) : 6 channels
    Channel positions : Front: L C R, Side: L R, LFE
    Sampling rate : 48.0 KHz
    Bit depth : 16 bits
    Compression mode : Lossy
    Stream size : 359 MiB (5%)
    Title : West Video
    Language : Russian
    Default : No
    Forced : No

    Audio #3
    ID : 4
    Format : AC-3
    Format/Info : Audio Coding 3
    Mode extension : CM (complete main)
    Codec ID : A_AC3
    Duration : 1h 51mn
    Bit rate mode : Constant
    Bit rate : 448 Kbps
    Channel(s) : 6 channels
    Channel positions : Front: L C R, Side: L R, LFE
    Sampling rate : 48.0 KHz
    Bit depth : 16 bits
    Compression mode : Lossy
    Stream size : 359 MiB (5%)
    Title : Ю.Живов
    Language : Russian
    Default : No
    Forced : No

    Audio #4
    ID : 5
    Format : AC-3
    Format/Info : Audio Coding 3
    Mode extension : CM (complete main)
    Codec ID : A_AC3
    Duration : 1h 51mn
    Bit rate mode : Constant
    Bit rate : 448 Kbps
    Channel(s) : 6 channels
    Channel positions : Front: L C R, Side: L R, LFE
    Sampling rate : 48.0 KHz
    Bit depth : 16 bits
    Compression mode : Lossy
    Stream size : 359 MiB (5%)
    Title : А.Гаврилов
    Language : Russian
    Default : No
    Forced : No

    Audio #5
    ID : 6
    Format : AC-3
    Format/Info : Audio Coding 3
    Mode extension : CM (complete main)
    Codec ID : A_AC3
    Duration : 1h 51mn
    Bit rate mode : Constant
    Bit rate : 448 Kbps
    Channel(s) : 6 channels
    Channel positions : Front: L C R, Side: L R, LFE
    Sampling rate : 48.0 KHz
    Bit depth : 16 bits
    Compression mode : Lossy
    Stream size : 359 MiB (5%)
    Language : English
    Default : No
    Forced : No

    Text
    ID : 7
    Format : UTF-8
    Codec ID : S_TEXT/UTF8
    Codec ID/Info : UTF-8 Plain Text
    Language : Russian
    Default : No
    Forced : No

    Скриншоты:


    pb.wtf



  • Скачать Фанат через торрент http://pic.kartinco.top/new/img/2014-05/17/qzv3to801mjovsvkh6ketgd60.png Скачать фильм Фанат через торрент бесплантно в хорошем качестве Описание: Звезда бейсбола Бобби Рейберн переходит в команду «San Francisco Giants». Теперь он находится под пристальным вниманием не ... 10 10 8
    Info! Золотая раздача, скачанное не засчитывается.
    Торрент: Зарегистрирован [2014-05-17 15:07] · скачан: 38 раз
    Статус: √ проверено
    Размер: 6.59 GB
    Как cкачать? Как скачать Фанат через торрент | qTorrent

    % Раздел Тема Автор DL S | L
    T Фильмы [HD 720p, 1080p] (Хороший звук DUB, MVO) [ 7.67 GB ] Фанат / The Fanatic [2019 BDRip 1080p] MVO [Mallorn] bober100 Скачать
    1 | 0
    Фильмы до 2000 г. [ 6.59 GB ] Фанат / The Fan [1996 HDTVRip 720p + Оригинал] GEKADOL Скачать
    1 | 0

    28-11-2019 20:33  

    Отключить всю рекламу на сайте

      Дорогой пользователь! Огромная просьба, поблагодарите релизера, оцените раздачу и оставьте свои комментарий, если Вы скачали Фанат через торрент бесплатно! Внесите свою лепту в развитие PiratBit!
      Комментировать посты могут только пользователи прошедшие не сложную регистрацию
      Показать сообщения:    

      Фанат через торрент
      Скачать бесплатно Фанат
      Фанат скачать торрент
      Фанат смотреть онлайн
      Cкачать фильм Фанат бесплатно
      Фанат скачать торрент в хорошем качестве
      Фанат смотреть онлайн бесплатно в хорошем качестве


      Вы не можете начинать темы
      Вы не можете отвечать на сообщения
      Вы не можете редактировать свои сообщения
      Вы не можете удалять свои сообщения
      Вы не можете голосовать в опросах
      Вы не можете прикреплять файлы к сообщениям
      Вы можете скачивать файлы