Ссылка на приватное зеркало всего за 1$. Внимание количество ограничено!!!

iTunes

1+1

iTunes

мы

WEB-DL

1

iTunes

Чернобыль

iTunes

Ральф против интернета

Лицензия

ПШазам

Лицензия

Оно 2

Лицензия

30
pack

Вам бонус

ВАЖНО

!!Акция!!

Alien_RageХит недели

RePack

Resident Evil 21

ИГРА 18+

pack

RePack

jed

!!Акция!!

Alien_Rage

RePack

fifa19

RePack

Assassins Creed: Odyssey

RePack

NEED FOR SPEED™ PAYBACK

3 сезон

9 сезон

Бесстыжие 9 сезон

Все сериалы

все сериалы на PB.wtf

RePack

FAR CRY 5
Ребята, катастрофически не хватает 1900р. для оплаты серверов за Октябрь (всвязи с блокировками трафик упал в 3 раза), 1-2р., выручайте.
  

Трудно быть Богом (Алексей Герман) [2013, Россия, фантастика, драма, BDRip 1080p] pb.wtf

Трудно быть Богом через торрент pb.wtf

Размер: 12.56 GB | Добавлен: 5 лет 6 мес. назад | Торрент скачан:349 раз
Скачать  

17-05-2014 18:45 Трудно быть Богом Скачать торрент  


Трудно быть Богом


Год выпуска: 2013
Страна:Россия
Жанр:фантастика, драма
Продолжительность:02:57:09
Перевод:Не требуется
Субтитры: Нет
Режиссер:Алексей Герман

  • В ролях:

    Леонид Ярмольник (Дон Румата Эсторский), Юрий Цурило (Барон Пампа), Наталья Мотева (Ари), Александр Чутко (Дон Рэба), Евгений Герчаков (Будах), Валентин Голубенко (Арата), Пётр Меркурьев, Олег Ботин (Бучер), Константин Быков (Монах), Юрий Думчев (Роэ Кэу), Александр Карпухов, Александр Ронис (факельщик)

  • Описание:
    На планете, погружённой в глухое Средневековье, работают наблюдатели-земляне, которые пытаются бережно подправлять ход событий, не нарушая логическое развитие истории. Главный герой, дон Румата Эсторский, осознавая свою задачу сохранения нейтралитета, тем не менее, не выдерживает, когда в Арканаре (одном из городов планеты) захватывает Влacть «чёрное братство», свергнувшее господство «серых», столь же отвратительных, но не столь кровавых. Румата берётся за меч, чтобы покарать злодеев, и тем самым нарушает все правила и закономерности, вмешиваясь в чужой исторический процесс.

  • Мировая премьера:13 ноября 2013


      Качество: BDRip 1080p
      Формат: MKV
      Видео кодек: AVC
      Аудио кодек:AC3
      Видео: AVC, 8635 Kb/s, 1920x1088, 23.976 fps
      Аудио: DTS, 1510 kb/s, 6 каналов, 48 Кгц


    Код:

    Общее
    Уникальный идентификатор                 : 170305368317068155458010973473581392163 (0x801F9EF03BCD6DC1A41263583A8D6123)
    Полное имя                               : D:\Фильмы\Trudno.byt.Bogom.2013.O.BDRip.1080p_.mkv
    Формат                                   : Matroska
    Версия формата                           : Version 2
    Размер файла                             : 12,6 Гбайт
    Продолжительность                        : 2 ч. 57 м.
    Общий поток                              : 10,1 Мбит/сек
    Дата кодирования                         : UTC 2014-05-17 02:43:56
    Программа кодирования                    : mkvmerge v6.1.0 ('Old Devil') built on Mar  4 2013 09:10:42
    Библиотека кодирования                   : libebml v1.3.0 + libmatroska v1.4.0

    Видео
    Идентификатор                            : 1
    Формат                                   : AVC
    Формат/Информация                        : Advanced Video Codec
    Профиль формата                          : High@L4.0
    Параметр CABAC формата                   : Да
    Параметр ReFrames формата                : 4 кадра
    Идентификатор кодека                     : V_MPEG4/ISO/AVC
    Продолжительность                        : 2 ч. 57 м.
    Битрейт                                  : 8635 Кбит/сек
    Ширина                                   : 1920 пикселей
    Высота                                   : 1088 пикселей
    Соотношение сторон                       : 16:9
    Режим частоты кадров                     : Постоянный
    Частота кадров                           : 24,000 кадра/сек
    Цветовое пространство                    : YUV
    Субдискретизация насыщенности            : 4:2:0
    Битовая глубина                          : 8 бит
    Тип развёртки                            : Прогрессивная
    Бит/(Пиксели*Кадры)                      : 0.172
    Размер потока                            : 10,4 Гбайт (83%)
    Библиотека кодирования                   : x264 core 130 r2273 b3065e6
    Настройки программы                      : cabac=1 / ref=2 / deblock=1:0:0 / analyse=0x3:0x113 / me=hex / subme=4 / psy=1 / psy_rd=1.00:0.00 / mixed_ref=0 / me_range=16 / chroma_me=1 / trellis=1 / 8x8dct=1 / cqm=0 / deadzone=21,11 / fast_pskip=1 / chroma_qp_offset=0 / threads=18 / lookahead_threads=4 / sliced_threads=0 / nr=0 / decimate=1 / interlaced=0 / bluray_compat=0 / constrained_intra=0 / bframes=3 / b_pyramid=2 / b_adapt=1 / b_bias=0 / direct=1 / weightb=1 / open_gop=0 / weightp=1 / keyint=250 / keyint_min=24 / scenecut=40 / intra_refresh=0 / rc_lookahead=20 / rc=2pass / mbtree=1 / bitrate=8635 / ratetol=1.0 / qcomp=0.60 / qpmin=0 / qpmax=69 / qpstep=4 / cplxblur=20.0 / qblur=0.5 / ip_ratio=1.40 / aq=1:1.00
    Default                                  : Да
    Forced                                   : Нет

    Аудио
    Идентификатор                            : 2
    Формат                                   : DTS
    Формат/Информация                        : Digital Theater Systems
    Режим                                    : 16
    Параметр Endianness формата              : Big
    Идентификатор кодека                     : A_DTS
    Продолжительность                        : 2 ч. 57 м.
    Вид битрейта                             : Постоянный
    Битрейт                                  : 1510 Кбит/сек
    Каналы                                   : 6 каналов
    Расположение каналов                     : Front: L C R, Side: L R, LFE
    Частота                                  : 48,0 КГц
    Битовая глубина                          : 24 бит
    Метод сжатия                             : С потерями
    Размер потока                            : 1,87 Гбайт (15%)
    Default                                  : Да
    Forced                                   : Нет

    Скриншоты:

    Каталог Новинок (Фильмы-трейлеры, Игры, Сериалы, Мультфильмы)

    © Оформление by Raven
    pb.wtf
    KMessa-fan писал(а):

    # сомнительно
    me=hex / subme=4
    + апскейп



  • Скачать Трудно быть Богом через торрент http://pic.kartinco.top/images/6/stazu.jpg Скачать фильм Трудно быть Богом через торрент бесплантно в хорошем качестве Описание:На планете, погружённой в глухое Средневековье, работают наблюдатели-земляне, которые пытаются бережно подправлять ход событий, не ... 9.2 10 11
    Торрент: Зарегистрирован [2014-05-17 18:45] · скачан: 349 раз
    Статус: # сомнительно
    Размер: 12.56 GB
    Как cкачать? Как скачать Трудно быть Богом через торрент | qTorrent

    % Раздел Тема Автор DL S | L
    Арт-хаус и авторское кино [ 1.37 GB ] Трудно быть Богом [2013 WEB-DLRip] 136 Гб diletant Скачать
    1 | 0
    Арт-хаус и авторское кино [ 4.37 GB ] Трудно быть Богом [2013 BDRip-AVC] [] potroks Скачать
    1 | 0
    Арт-хаус и авторское кино [ 2.2 GB ] Трудно быть Богом [2013 BDRip ] coc900 Скачать
    1 | 0
    Арт-хаус и авторское кино [ 6.84 GB ] Трудно быть Богом [2013 DVD9] R5 voovaz Скачать
    1 | 0
    Арт-хаус и авторское кино [ 2.74 GB ] Трудно быть Богом [2013 Россия HDRip] Ворон Скачать
    1 | 0
    Наши фильмы (Blu-ray, BD-Remux, HDDVD) [ 18.13 GB ] Трудно быть Богом [2013 Россия BDRemux] Ворон Скачать
    1 | 0
    Арт-хаус и авторское кино [ 2.05 GB ] Трудно быть Богом [2013 WEB-DLRip] 205 Гб diletant Скачать
    1 | 0

    28-11-2019 20:33  

    Отключить всю рекламу на сайте

    18-05-2014 16:22 Трудно быть Богом Скачать торрент  

    Вот спасибо я этот фильм ждал с 2000-го года!!!!!
    УРА УРА УРА

    pb.wtf



    18-05-2014 18:00 Трудно быть Богом Скачать торрент  

    И чему ты радуешься, это надо такое ... создать!!!!!!!!!!!!!!!!!!!!!!!!!!pb.wtf



    19-05-2014 16:49 Трудно быть Богом Скачать торрент  

    Я его 14 лет ждал, и что ? Лучше бы его вообще не выпустили!!!
    :shoot2: :jest3: nopb.wtf



    25-05-2014 15:43 Трудно быть Богом Скачать торрент  

    бредятинаpb.wtf



    25-05-2014 15:45 Трудно быть Богом Скачать торрент  

    2005and писал(а):

    Вот спасибо я этот фильм ждал с 2000-го года!!!!!
    УРА УРА УРА


    что ура ТЫ там случайно не снимался sarcasticpb.wtf



      Дорогой пользователь! Огромная просьба, поблагодарите релизера, оцените раздачу и оставьте свои комментарий, если Вы скачали Трудно быть Богом через торрент бесплатно! Внесите свою лепту в развитие PiratBit!
      Комментировать посты могут только пользователи прошедшие не сложную регистрацию
      Показать сообщения:    

      Трудно быть Богом через торрент
      Скачать бесплатно Трудно быть Богом
      Трудно быть Богом скачать торрент
      Трудно быть Богом смотреть онлайн
      Cкачать фильм Трудно быть Богом бесплатно
      Трудно быть Богом скачать торрент в хорошем качестве
      Трудно быть Богом смотреть онлайн бесплатно в хорошем качестве


      Вы не можете начинать темы
      Вы не можете отвечать на сообщения
      Вы не можете редактировать свои сообщения
      Вы не можете удалять свои сообщения
      Вы не можете голосовать в опросах
      Вы не можете прикреплять файлы к сообщениям
      Вы можете скачивать файлы