новый адрес
Ссылка на приватное зеркало всего за 1$. Внимание количество ограничено!!!

iTunes

1+1

iTunes

мы

WEB-DL

1

iTunes

Чернобыль

iTunes

Ральф против интернета

Лицензия

ПШазам

Лицензия

Оно 2

Лицензия

30
pack

Вам бонус

ВАЖНО

!!Акция!!

Alien_RageХит недели

RePack

Resident Evil 21

ИГРА 18+

pack

RePack

jed

!!Акция!!

Alien_Rage

RePack

fifa19

RePack

Assassins Creed: Odyssey

RePack

NEED FOR SPEED™ PAYBACK

3 сезон

9 сезон

Бесстыжие 9 сезон

Все сериалы

все сериалы на PB.wtf

RePack

FAR CRY 5
Ребята, катастрофически не хватает 1900р. для оплаты серверов за Октябрь (всвязи с блокировками трафик упал в 3 раза), 1-2р., выручайте.
  

Трудно быть Богом (Алексей Герман) [2013, Россия, фантастика, драма, HDRip] pb.wtf

Трудно быть Богом через торрент pb.wtf

Размер: 2.74 GB | Добавлен: 5 лет 6 мес. назад | Торрент скачан:478 раз
Скачать  

17-05-2014 19:01 Трудно быть Богом Скачать торрент  


Трудно быть Богом


Год выпуска: 2013
Страна:Россия
Жанр:фантастика, драма
Продолжительность:02:57:13
Перевод:Не требуется
Субтитры: Нет
Режиссер:Алексей Герман

  • В ролях:

    Леонид Ярмольник (Дон Румата Эсторский), Юрий Цурило (Барон Пампа), Наталья Мотева (Ари), Александр Чутко (Дон Рэба), Евгений Герчаков (Будах), Валентин Голубенко (Арата), Пётр Меркурьев, Олег Ботин (Бучер), Константин Быков (Монах), Юрий Думчев (Роэ Кэу), Александр Карпухов, Александр Ронис (факельщик)

  • Описание:
    На планете, погружённой в глухое Средневековье, работают наблюдатели-земляне, которые пытаются бережно подправлять ход событий, не нарушая логическое развитие истории. Главный герой, дон Румата Эсторский, осознавая свою задачу сохранения нейтралитета, тем не менее, не выдерживает, когда в Арканаре (одном из городов планеты) захватывает Влacть «чёрное братство», свергнувшее господство «серых», столь же отвратительных, но не столь кровавых. Румата берётся за меч, чтобы покарать злодеев, и тем самым нарушает все правила и закономерности, вмешиваясь в чужой исторический процесс.

  • Мировая премьера:13 ноября 2013


      Качество: HDRip
      Формат: AVI
      Видео кодек: XviD
      Аудио кодек:AC3
      Видео: XviD, 720x416 (16:9), 1754 kbps, 24 fps, 0,244 bpp
      Аудио: AC3 / 5.1 / 48 kHz / 448 kbps / 16 bit


    Код:

    General
    Complete name                            : D:\Торенты\Trudn0.Byti.B0g0m.2013.O.HDRip.2800MB.avi
    Format                                   : AVI
    Format/Info                              : Audio Video Interleave
    Format profile                           : OpenDML
    File size                                : 2.74 GiB
    Duration                                 : 2h 57mn
    Overall bit rate                         : 2 214 Kbps
    Writing application                      : VirtualDubMod 1.5.10.3 | www.virtualdub-fr.org || (build 2550/release)
    Writing library                          : VirtualDubMod build 2550/release

    Video
    ID                                       : 0
    Format                                   : MPEG-4 Visual
    Format profile                           : Advanced Simple@L5
    Format settings, BVOP                    : 2
    Format settings, QPel                    : No
    Format settings, GMC                     : No warppoints
    Format settings, Matrix                  : Custom
    Codec ID                                 : XVID
    Codec ID/Hint                            : XviD
    Duration                                 : 2h 57mn
    Bit rate                                 : 1 755 Kbps
    Width                                    : 720 pixels
    Height                                   : 416 pixels
    Display aspect ratio                     : 16:9
    Frame rate                               : 24.000 fps
    Color space                              : YUV
    Chroma subsampling                       : 4:2:0
    Bit depth                                : 8 bits
    Scan type                                : Progressive
    Compression mode                         : Lossy
    Bits/(Pixel*Frame)                       : 0.244
    Stream size                              : 2.17 GiB (79%)
    Writing library                          : XviD 1.2.1 (UTC 2008-12-04)

    Audio
    ID                                       : 1
    Format                                   : AC-3
    Format/Info                              : Audio Coding 3
    Mode extension                           : CM (complete main)
    Codec ID                                 : 2000
    Duration                                 : 2h 57mn
    Bit rate mode                            : Constant
    Bit rate                                 : 448 Kbps
    Channel(s)                               : 6 channels
    Channel positions                        : Front: L C R, Side: L R, LFE
    Sampling rate                            : 48.0 KHz
    Bit depth                                : 16 bits
    Compression mode                         : Lossy
    Stream size                              : 568 MiB (20%)
    Alignment                                : Split accross interleaves
    Interleave, duration                     : 42 ms (1.00 video frame)
    Interleave, preload duration             : 500 ms

    Скриншоты:

    Каталог Новинок (Фильмы-трейлеры, Игры, Сериалы, Мультфильмы)

    © Оформление by Raven
    pb.wtf



  • Скачать Трудно быть Богом через торрент http://pic.kartinco.top/images/6/stazu.jpg Скачать фильм Трудно быть Богом через торрент бесплантно в хорошем качестве Описание:На планете, погружённой в глухое Средневековье, работают наблюдатели-земляне, которые пытаются бережно подправлять ход событий, не ... 9.3 10 16
    Торрент: Зарегистрирован [2014-05-17 19:01] · скачан: 478 раз
    Статус: √ проверено
    Размер: 2.74 GB
    Как cкачать? Как скачать Трудно быть Богом через торрент | qTorrent

    % Раздел Тема Автор DL S | L
    Арт-хаус и авторское кино [ 1.37 GB ] Трудно быть Богом [2013 WEB-DLRip] 136 Гб diletant Скачать
    1 | 0
    Арт-хаус и авторское кино [ 4.37 GB ] Трудно быть Богом [2013 BDRip-AVC] [] potroks Скачать
    2 | 0
    Арт-хаус и авторское кино [ 2.2 GB ] Трудно быть Богом [2013 BDRip ] coc900 Скачать
    1 | 0
    Арт-хаус и авторское кино [ 6.84 GB ] Трудно быть Богом [2013 DVD9] R5 voovaz Скачать
    1 | 0
    # Арт-хаус и авторское кино [ 12.56 GB ] Трудно быть Богом [2013 Россия BDRip 1080p] Ворон Скачать
    1 | 0
    Наши фильмы (Blu-ray, BD-Remux, HDDVD) [ 18.13 GB ] Трудно быть Богом [2013 Россия BDRemux] Ворон Скачать
    1 | 0
    Арт-хаус и авторское кино [ 2.05 GB ] Трудно быть Богом [2013 WEB-DLRip] 205 Гб diletant Скачать
    1 | 0

    28-11-2019 20:33  

    Отключить всю рекламу на сайте

    18-05-2014 07:34 Трудно быть Богом Скачать торрент  

    Такая хрень!Надо так книгу изувечить!pb.wtf



    18-05-2014 07:40 Трудно быть Богом Скачать торрент  

    тем кто любит писать "Унылое Г"..
    посмотрите это, и вы поймёте как бывает УГ на самом деле..
    весь фильм проходит в говне и всё очень уныло..

    некоторые произведения нельзя экранизировать..pb.wtf



    18-05-2014 07:56 Трудно быть Богом Скачать торрент  

    Лучше бы уже не брались...pb.wtf



      Дорогой пользователь! Огромная просьба, поблагодарите релизера, оцените раздачу и оставьте свои комментарий, если Вы скачали Трудно быть Богом через торрент бесплатно! Внесите свою лепту в развитие PiratBit!
      Комментировать посты могут только пользователи прошедшие не сложную регистрацию
      Показать сообщения:    

      Трудно быть Богом через торрент
      Скачать бесплатно Трудно быть Богом
      Трудно быть Богом скачать торрент
      Трудно быть Богом смотреть онлайн
      Cкачать фильм Трудно быть Богом бесплатно
      Трудно быть Богом скачать торрент в хорошем качестве
      Трудно быть Богом смотреть онлайн бесплатно в хорошем качестве


      Вы не можете начинать темы
      Вы не можете отвечать на сообщения
      Вы не можете редактировать свои сообщения
      Вы не можете удалять свои сообщения
      Вы не можете голосовать в опросах
      Вы не можете прикреплять файлы к сообщениям
      Вы можете скачивать файлы