2 сезон

iTunes

MVO

1

2 сезон

iTunes

iTunes

1 сезон

RePack

30

Ultimate

ВАЖНО

ИГРА 18+

pack

RePack

MK11
pack

Легкие деньги

RePack

jed

RePack

fifa19

RePack

RDR2

RePack

NEED FOR SPEED™ PAYBACK

4 сезон

9 сезон

Бесстыжие 9 сезон

Все сериалы

все сериалы на PB.wtf

RePack

FAR CRY 5

Anonymous, доброе утро, мы не успеваем собрать деньги на оплату серверов за декабрь и январь, помогите нам пожалуйста в это трудное время. В качестве благодарности мы отключим Вам всю рекламу на сайте (укажите свой ник в строку Ваше имя)!

×
  
Magnet ссылка

Последнее изгнание дьявола: Второе пришествие / The Last Exorcism Part II (Эд Гасс-Доннели / Ed Gass-Donnelly) [2013, США, ужасы, триллер, драма, HDRip,Профессиональный [Дубляж ][UNRATED] pb.wtf

Последнее изгнание дьявола: Второе пришествие через торрент pb.wtf

Размер: 1.37 GB | Добавлен: 6 лет 8 мес. назад | Торрент скачан:1622 раза
Скачать  

17-05-2014 21:36 Последнее изгнание дьявола: Второе пришествие Скачать торрент  


Последнее изгнание дьявола: Второе пришествие / The Last Exorcism Part II
«The Second Coming»

Год выпуска: 2013
Страна:США
Жанр:ужасы, триллер, драма
Продолжительность:01:29:23
Перевод:Профессиональный [Дубляж - Чистый звук]
Субтитры: Нет
Режиссер:Эд Гасс-Доннели / Ed Gass-Donnelly

  • В ролях:

    Эшли Белл (Nell), Джулия Гарнер (Gwen), Спенсер Трит Кларк (Chris), Дэвид Дженсен (Calder), Тара Риггз (Cecile), Луис Хертэм (Louis), Мьюз Уотсон (Frank Merle), Эрика Мишель (Daphne), Шэрис А. Уильямс (Mo), Бояна Бальта (Lily), Джо Крест (Pastor), Рэден Грир (Steph)

  • Описание:
    Нелл находят в лесу - грязную и напуганную, только что сбежавшую со страшного ритуала. Вся ее семья погибла и девушку отправляют в Новый Орлеан - приют для девочек. Там она попадает под присмотр терапевта Фрэнка Мерле. Жизнь вроде бы налаживается, Нелл влюбляется в местного мальчика, но в самый неподходящий момент демон вновь объявляется и овладевает Нелл. Теперь он хочет от нее нечто большее...

  • Мировая премьера:1 марта 2013


      Качество: HDRip
      Формат: AVI
      Видео кодек: XviD
      Аудио кодек:AC3
      Видео: XviD, 720x304 (2.35:1), 1999 kbps, 23,976 fps, 0,381 bpp
      Аудио: AC3 / 2.0 / 48 kHz / 192 kbps / 16 bit


    Код:

    General
    Complete name                            : D:\Торенты\Poslednee.izgnanie.djavola.vtoroe.prishestvie.2013.D.HDRip.1400Mb.avi
    Format                                   : AVI
    Format/Info                              : Audio Video Interleave
    File size                                : 1.37 GiB
    Duration                                 : 1h 29mn
    Overall bit rate                         : 2 201 Kbps
    Writing application                      : VirtualDubMod 1.5.10.2 (build 2540/release)
    Writing library                          : VirtualDubMod build 2540/release

    Video
    ID                                       : 0
    Format                                   : MPEG-4 Visual
    Format profile                           : Advanced Simple@L5
    Format settings, BVOP                    : 2
    Format settings, QPel                    : No
    Format settings, GMC                     : No warppoints
    Format settings, Matrix                  : Default (MPEG)
    Codec ID                                 : XVID
    Codec ID/Hint                            : XviD
    Duration                                 : 1h 29mn
    Bit rate                                 : 1 999 Kbps
    Width                                    : 720 pixels
    Height                                   : 304 pixels
    Display aspect ratio                     : 2.35:1
    Frame rate                               : 23.976 fps
    Color space                              : YUV
    Chroma subsampling                       : 4:2:0
    Bit depth                                : 8 bits
    Scan type                                : Progressive
    Compression mode                         : Lossy
    Bits/(Pixel*Frame)                       : 0.381
    Stream size                              : 1.25 GiB (91%)
    Writing library                          : XviD 1.2.1 (UTC 2008-12-04)

    Audio
    ID                                       : 1
    Format                                   : AC-3
    Format/Info                              : Audio Coding 3
    Mode extension                           : CM (complete main)
    Codec ID                                 : 2000
    Duration                                 : 1h 29mn
    Bit rate mode                            : Constant
    Bit rate                                 : 192 Kbps
    Channel(s)                               : 2 channels
    Channel positions                        : Front: L R
    Sampling rate                            : 48.0 KHz
    Bit depth                                : 16 bits
    Compression mode                         : Lossy
    Stream size                              : 123 MiB (9%)
    Alignment                                : Split accross interleaves
    Interleave, duration                     : 42 ms (1.00 video frame)
    Interleave, preload duration             : 500 ms

    Скриншоты:

    Каталог Новинок (Фильмы-трейлеры, Игры, Сериалы, Мультфильмы)

    © Оформление by Raven
    pb.wtf



  • Скачать Последнее изгнание дьявола: Второе пришествие через торрент http://pic.kartinco.top/images/6/stazu.jpg Скачать фильм Последнее изгнание дьявола: Второе пришествие через торрент бесплантно в хорошем качестве Описание:Нелл находят в лесу - грязную и напуганную, только что сбежавшую со страшного ритуала. Вся ее семья погибла и девушку отправляют в ... 9.6 10 51
    Info! Золотая раздача, скачанное не засчитывается.
    Торрент: Зарегистрирован [2014-05-17 21:36] · скачан: 1 622 раз
    Статус: T временная
    Размер: 1.37 GB
    Как cкачать? Как скачать Последнее изгнание дьявола: Второе пришествие через торрент | UTorrent

    % Раздел Тема Автор DL S | L
    Фильмы 2013 (Звук TS, Cam, VO, DVO) [ 2.07 GB ] Последнее изгнание дьявола: Второе пришествие / The Last Exorcism Part II[UNRATED] [2013 BDRip VO] coc900 Скачать
    1 | 0
    T Фильмы 2013 (Звук TS, Cam, VO, DVO) [ 1.36 GB ] Последнее изгнание дьявола: Второе пришествие / The Last Exorcism Part II [2013 слова HDRip Дублированное [звук с CAMRip] ] Alex_E Скачать
    1 | 0

    28-11-2019 20:33  

    Отключить всю рекламу на сайте

    19-05-2014 08:21 Последнее изгнание дьявола: Второе пришествие Скачать торрент  

    Веталь,где аву потерял?))pb.wtf



    27-05-2014 12:27 Последнее изгнание дьявола: Второе пришествие Скачать торрент  

    ФедорOFF
    Хорошая подпись)
    Raven
    Спасибо за фильмpb.wtf



    07-10-2014 17:44 Последнее изгнание дьявола: Второе пришествие Скачать торрент  

    Спасибо за фильмец))) yes yespb.wtf



    10-10-2014 07:01 Последнее изгнание дьявола: Второе пришествие Скачать торрент  

    посмотрим, спасибоpb.wtf



      Дорогой пользователь! Огромная просьба, поблагодарите релизера, оцените раздачу и оставьте свои комментарий, если Вы скачали Последнее изгнание дьявола: Второе пришествие через торрент бесплатно! Внесите свою лепту в развитие PiratBit!
      Комментировать посты могут только пользователи прошедшие не сложную регистрацию
      Показать сообщения:    

      Последнее изгнание дьявола: Второе пришествие через торрент
      Скачать бесплатно Последнее изгнание дьявола: Второе пришествие
      Последнее изгнание дьявола: Второе пришествие скачать торрент
      Последнее изгнание дьявола: Второе пришествие смотреть онлайн
      Cкачать фильм Последнее изгнание дьявола: Второе пришествие бесплатно
      Последнее изгнание дьявола: Второе пришествие скачать торрент в хорошем качестве
      Последнее изгнание дьявола: Второе пришествие смотреть онлайн бесплатно в хорошем качестве


      Вы не можете начинать темы
      Вы не можете отвечать на сообщения
      Вы не можете редактировать свои сообщения
      Вы не можете удалять свои сообщения
      Вы не можете голосовать в опросах
      Вы не можете прикреплять файлы к сообщениям
      Вы можете скачивать файлы