1 сезон

1 сезон

iTunes

1

КиноПоиск HD

Кинопоиск HD

iTunes

13

1 сезон

RePack

30

Новинка

ВАЖНО

ИГРА 18+

pack

RePack

MK11
pack

Легкие деньги

RePack

jed

RePack

fifa19

RePack

RDR2

RePack

NEED FOR SPEED™ PAYBACK

4 сезон

9 сезон

Бесстыжие 9 сезон

Все сериалы

все сериалы на PB.wtf

RePack

FAR CRY 5
  
Magnet ссылка

Палач Дамер / Dahmer (Дэвид Джейкобсон) [2002 г., триллер, драма, криминал, ..., DVDRip, Профессиональный многоголосый] pb.wtf

Палач Дамер через торрент pb.wtf

Размер: 1.32 GB | Добавлен: 6 лет 11 мес. назад | Торрент скачан:99 раз
Скачать  

17-05-2014 21:40 Палач Дамер Скачать торрент  

Палач Дамер / Dahmer
Год выпуска: 2002
Страна: США
Жанр: триллер, драма, криминал, ...
Продолжительность: 01:37:48
Перевод: Профессиональный многоголосый
Тип релиза: Лицензия

Режиссер: Дэвид Джейкобсон
Продюссер: Ларри Рэттнер, Мэтт Р. Брэйди, Сьюзэн Р. Роджерс, ...
Сценарий: Дэвид Джейкобсон, Дэвид Бирк

Бюджет: $250 000
Премьера в мире: 21 июня 2002

лицам до 17 лет обязательно присутствие взрослого
IMDb: 5.60
Кинопоиск:5.998

В ролях: Джереми Реннер, Мики Свенсон, Артел Каяру, Мэтт Ньютон, Дион Баско, Брюс Дэвисон, Шон Блейкмор, Кейт Уильямсон, Томья Боуден, Кристина Пейано

Описание: Палач… Животное… Монстр… Ни одно из этих определений не способно точно охарактеризовать Джеффри Дамера, обвиненного в убийстве, расчленении и поедании тел более чем 15 молодых людей в Милуоки (штат Висконсин). Может ли подобный монстр считаться человеком?
Основанный на реальных фактах, этот фильм исследует истинную природу человека, пытается найти причины, способные заставить человека утратить все сдерживающие факторы и превратиться в нечто, чему нет названия.

Качество: DVDRip
Формат: AVI
Видео кодек: XviD
Аудио кодек: MP3
Видео: 704x400 (1.76:1), 25 fps, XviD build 50 ~1799 kbps avg, 0.26 bit/pixe
Аудио#1: 48 kHz, MPEG Layer 3, 2 ch, ~128.00 kbps avg
Релиз от: Argis12
скриншот   скриншот   скриншот   скриншот   скриншот   скриншот   скриншот  

Общее
Полное имя : N:\ПИРАТБИТ\ПАЛАЧ ДАМЕР.avi
Формат : AVI
Формат/Информация : Audio Video Interleave
Размер файла : 1,32 Гбайт
Продолжительность : 1 ч. 37 м.
Общий поток : 1938 Кбит/сек
Программа кодирования : VirtualDubMod 1.5.10.2 (build 2540/release)
Библиотека кодирования : VirtualDubMod build 2540/release

Видео
Идентификатор : 0
Формат : MPEG-4 Visual
Профиль формата : Advanced Simple@L5
Параметр BVOP формата : 1
Параметр QPel формата : Нет
Параметр GMC формата : Без точки перехода
Параметр матрицы формата : Default (H.263)
Идентификатор кодека : XVID
Идентификатор кодека/Подсказка : XviD
Продолжительность : 1 ч. 37 м.
Битрейт : 1800 Кбит/сек
Ширина : 704 пикселя
Высота : 400 пикселей
Соотношение сторон : 16:9
Частота кадров : 25,000 кадров/сек
Цветовое пространство : YUV
Субдискретизация насыщенности : 4:2:0
Битовая глубина : 8 бит
Тип развёртки : Прогрессивная
Метод сжатия : С потерями
Бит/(Пиксели*Кадры) : 0.256
Размер потока : 1,23 Гбайт (93%)
Библиотека кодирования : XviD 1.2.1 (UTC 2008-12-04)

Аудио
Идентификатор : 1
Формат : MPEG Audio
Версия формата : Version 1
Профиль формата : Layer 3
Идентификатор кодека : 55
Идентификатор кодека/Подсказка : MP3
Продолжительность : 1 ч. 37 м.
Вид битрейта : Постоянный
Битрейт : 128 Кбит/сек
Каналы : 2 канала
Частота : 48,0 КГц
Метод сжатия : С потерями
Размер потока : 89,5 Мбайт (7%)
Выравнивание : Соединение по промежуткам
Продолжительность промежутка : 40 мс. (1,00 видеокадр)
Время предзагрузки промежутка : 504 мс.
Библиотека кодирования : LAME3.98r
Настройки программы : -m s -V 4 -q 2 -lowpass 17 -b 128

pb.wtf



Скачать Палач Дамер через торрент https://pic.kartinco.top/images/6/oockv.jpg Скачать фильм Палач Дамер через торрент бесплантно в хорошем качестве Описание: Палач… Животное… Монстр… Ни одно из этих определений не способно точно охарактеризовать Джеффри Дамера, обвиненного в убийстве, ... 8 10 4
Info! Золотая раздача, скачанное не засчитывается.
Торрент: Зарегистрирован [2014-05-17 21:40] · скачан: 99 раз
Статус: √ проверено
Размер: 1.32 GB
Как cкачать? Как скачать Палач Дамер через торрент | UTorrent

28-11-2019 20:33  

Отключить всю рекламу на сайте

    Дорогой пользователь! Огромная просьба, поблагодарите релизера, оцените раздачу и оставьте свои комментарий, если Вы скачали Палач Дамер через торрент бесплатно! Внесите свою лепту в развитие PiratBit!
    Комментировать посты могут только пользователи прошедшие не сложную регистрацию
    Показать сообщения:    

    Палач Дамер через торрент
    Скачать бесплатно Палач Дамер
    Палач Дамер скачать торрент
    Палач Дамер смотреть онлайн
    Cкачать фильм Палач Дамер бесплатно
    Палач Дамер скачать торрент в хорошем качестве
    Палач Дамер смотреть онлайн бесплатно в хорошем качестве


    Вы не можете начинать темы
    Вы не можете отвечать на сообщения
    Вы не можете редактировать свои сообщения
    Вы не можете удалять свои сообщения
    Вы не можете голосовать в опросах
    Вы не можете прикреплять файлы к сообщениям
    Вы можете скачивать файлы