Ссылка на приватное зеркало нашего сайта всего за 1$. Внимание количество ограничено!!!

2 сезон

iTunes

1 сезон

1

iTunes

iTunes

iTunes

1 сезон

RePack

30

ИГРА 18+

pack

ВАЖНО

!!Акция!!

Alien_RageХит недели

RePack

MK11
pack

Забери бонус

RePack

jed

!!Акция!!

Alien_Rage

RePack

fifa19

RePack

Assassins Creed: Odyssey

RePack

NEED FOR SPEED™ PAYBACK

4 сезон

9 сезон

Бесстыжие 9 сезон

Все сериалы

все сериалы на PB.wtf

RePack

FAR CRY 5
  

Пельмени (Геннадий Островский) [2013, Россия, комедия, HDTVRip] pb.wtf

Пельмени через торрент pb.wtf

Размер: 1.36 GB | Добавлен: 6 лет 5 мес. назад | Торрент скачан:1018 раз
Скачать  

17-05-2014 21:57 Пельмени Скачать торрент  


Пельмени


Год выпуска: 2013
Страна:Россия
Жанр:комедия
Продолжительность:01:32:38
Перевод:Не требуется
Субтитры: Нет
Режиссер:Геннадий Островский

  • В ролях:

    Тимофей Трибунцев, Артём Осипов, Один Ланд Байрон, Мария Данилюк, Нина Лощинина

  • Описание:
    Есть две безусловные вещи - это мама и пельмени, которые она лепит. Даже если все через ж... и оттуда нет выхода, даже если твоя жена изменяет тебе с охранником филармонии, а твой младший брат посещает гей-клубы и зарабатывает в разы больше тебя, даже если тебя укусила бешеная собака, а в носовых платках тебе присылают отрубленные пальцы, помни, что всегда есть ценности, которые остаются незыблемыми: будь собой и никогда не ври маме!


      Качество: HDTVRip
      Формат: AVI
      Видео кодек: XviD
      Аудио кодек:AC3
      Видео: XviD, 720x368 (1.957), 1660 kbps, 25 fps, 0,251 bpp
      Аудио: AC3 / 5.1 / 48 kHz / 448 kbps / 16 bit


    Код:

    General
    Complete name                            : D:\Торенты\Pelmeni.2013.HDTVRip.MediaClub.avi
    Format                                   : AVI
    Format/Info                              : Audio Video Interleave
    File size                                : 1.36 GiB
    Duration                                 : 1h 32mn
    Overall bit rate                         : 2 106 Kbps
    Movie name                               : MediaClub
    Writing application                      : VirtualDubMod 1.5.10.2 (build 2540/release)
    Writing library                          : VirtualDubMod build 2540/release

    Video
    ID                                       : 0
    Format                                   : MPEG-4 Visual
    Format profile                           : Advanced Simple@L5
    Format settings, BVOP                    : 2
    Format settings, QPel                    : No
    Format settings, GMC                     : No warppoints
    Format settings, Matrix                  : Default (MPEG)
    Codec ID                                 : XVID
    Codec ID/Hint                            : XviD
    Duration                                 : 1h 32mn
    Bit rate                                 : 1 660 Kbps
    Width                                    : 720 pixels
    Height                                   : 368 pixels
    Display aspect ratio                     : 1.957
    Frame rate                               : 25.000 fps
    Color space                              : YUV
    Chroma subsampling                       : 4:2:0
    Bit depth                                : 8 bits
    Scan type                                : Progressive
    Compression mode                         : Lossy
    Bits/(Pixel*Frame)                       : 0.251
    Stream size                              : 1.07 GiB (79%)
    Writing library                          : XviD 65

    Audio
    ID                                       : 1
    Format                                   : AC-3
    Format/Info                              : Audio Coding 3
    Mode extension                           : CM (complete main)
    Codec ID                                 : 2000
    Duration                                 : 1h 30mn
    Bit rate mode                            : Constant
    Bit rate                                 : 448 Kbps
    Channel(s)                               : 6 channels
    Channel positions                        : Front: L C R, Side: L R, LFE
    Sampling rate                            : 48.0 KHz
    Bit depth                                : 16 bits
    Compression mode                         : Lossy
    Stream size                              : 289 MiB (21%)
    Alignment                                : Split accross interleaves
    Interleave, duration                     : 41 ms (1.03 video frame)
    Interleave, preload duration             : 500 ms

    Скриншоты:

    Каталог Новинок (Фильмы-трейлеры, Игры, Сериалы, Мультфильмы)

    © Оформление by Raven
    pb.wtf



  • Скачать Пельмени через торрент http://pic.kartinco.top/images/6/stazu.jpg Скачать фильм Пельмени через торрент бесплантно в хорошем качестве Описание:Есть две безусловные вещи - это мама и пельмени, которые она лепит. Даже если все через ж... и оттуда нет выхода, даже если твоя ... 9.2 10 25
    Info! Золотая раздача, скачанное не засчитывается.
    Торрент: Зарегистрирован [2014-05-17 21:57] · скачан: 1 018 раз
    Статус: √ проверено
    Размер: 1.36 GB
    Как cкачать? Как скачать Пельмени через торрент | qTorrent

    % Раздел Тема Автор DL S | L
    Развлекательные телепередачи и шоу, приколы и юмор [ 924 MB ] Уральские Пельмени - ЖИ-ШИ прилетели [15.02] [2019 ТВ-шоу юмор SATRip] bober100 Скачать
    2 | 0
    Развлекательные телепередачи и шоу, приколы и юмор [ 2.4 GB ] Уральские пельмени - Пляжный шизон [08.02] [2019 ТВ-шоу юмор сатира развлекательный WEBRip 1080p] bober100 Скачать
    1 | 0
    Развлекательные телепередачи и шоу, приколы и юмор [ 898 MB ] Уральские пельмени. Пляжный шизон [2019 Юмор SATRip Русский] oleg8 Скачать
    2 | 0
    Развлекательные телепередачи и шоу, приколы и юмор [ 2.45 GB ] Уральские пельмени - День сырка [01.02] [2019 ТВ-шоу юмор сатира развлекательный WEBRip 1080p] bober100 Скачать
    1 | 0
    Развлекательные телепередачи и шоу, приколы и юмор [ 2.32 GB ] Уральские пельмени - Азбука Уральских пельменей. Е [25.01] [2019 ТВ-шоу юмор сатира развлекательный WEBRip 1080p] bober100 Скачать
    1 | 0
    Развлекательные телепередачи и шоу, приколы и юмор [ 897 MB ] Уральские пельмени: Лень космонавтики [11.01] [2019 ТВ-шоу юмор сатира развлекательный SATRip] bober100 Скачать
    1 | 0
    Развлекательные телепередачи и шоу, приколы и юмор [ 1.07 GB ] Уральские пельмени: Страна Гирляндия [31.12] [2018 ТВ-шоу юмор WEB-DL 720p] bober100 Скачать
    1 | 0

    28-11-2019 20:33  

    Отключить всю рекламу на сайте

    18-05-2014 15:11 Пельмени Скачать торрент  

    народ! че еще не посмотрел никто? стоит качать?pb.wtf



    20-05-2014 12:09 Пельмени Скачать торрент  

    Скачен 222 раз что скажите pb.wtf



    20-05-2014 15:09 Пельмени Скачать торрент  

    Блин !! Пельмени что надо! Люблю чуть "крейзи" фильмы))) sarcasticpb.wtf



    21-05-2014 20:36 Пельмени Скачать торрент  

    ладно, качну, но если это очередное УГ кинематографа типа Залетчиков..., я буду весьма разочарован :cansored: :cansored:pb.wtf



    21-05-2014 22:18 Пельмени Скачать торрент  

    Не уральские хоть? :sarcastic_blum:pb.wtf



    25-07-2014 21:37 Пельмени Скачать торрент  

    Посмотрим что наши наснимали на этот раз...pb.wtf



      Дорогой пользователь! Огромная просьба, поблагодарите релизера, оцените раздачу и оставьте свои комментарий, если Вы скачали Пельмени через торрент бесплатно! Внесите свою лепту в развитие PiratBit!
      Комментировать посты могут только пользователи прошедшие не сложную регистрацию
      Показать сообщения:    

      Пельмени через торрент
      Скачать бесплатно Пельмени
      Пельмени скачать торрент
      Пельмени смотреть онлайн
      Cкачать фильм Пельмени бесплатно
      Пельмени скачать торрент в хорошем качестве
      Пельмени смотреть онлайн бесплатно в хорошем качестве


      Вы не можете начинать темы
      Вы не можете отвечать на сообщения
      Вы не можете редактировать свои сообщения
      Вы не можете удалять свои сообщения
      Вы не можете голосовать в опросах
      Вы не можете прикреплять файлы к сообщениям
      Вы можете скачивать файлы