новый адрес
Ссылка на приватное зеркало всего за 1$. Внимание количество ограничено!!!

iTunes

1+1

iTunes

мы

WEB-DL

1

iTunes

Чернобыль

iTunes

Ральф против интернета

Лицензия

ПШазам

Лицензия

Оно 2

Лицензия

30
pack

Вам бонус

ВАЖНО

!!Акция!!

Alien_RageХит недели

RePack

Resident Evil 21

ИГРА 18+

pack

RePack

jed

!!Акция!!

Alien_Rage

RePack

fifa19

RePack

Assassins Creed: Odyssey

RePack

NEED FOR SPEED™ PAYBACK

3 сезон

9 сезон

Бесстыжие 9 сезон

Все сериалы

все сериалы на PB.wtf

RePack

FAR CRY 5
Ребята, катастрофически не хватает 1900р. для оплаты серверов за Октябрь (всвязи с блокировками трафик упал в 3 раза), 1-2р., выручайте.
  

Трудно быть Богом (Алексей Герман) [2013, фантастика, драма, DVD9] R5 pb.wtf

Трудно быть Богом через торрент pb.wtf

Размер: 6.84 GB | Добавлен: 5 лет 6 мес. назад | Торрент скачан:102 раза
Скачать  

17-05-2014 22:12 Трудно быть Богом Скачать торрент  


Трудно быть Богом
Страна: Россия
Студия: Ленфильм, Министерство культуры Российской Федерации, Студия Север
Жанр: фантастика, драма
Год выпуска: 2013
Мировая премьера: 13 ноября 2013
Российская премьера: 27 февраля 2014
Дата выхода DVD: 20 мая 2014
Дата выхода Blu-Ray: 20 мая 2014
Продолжительность: 02:50:07
Перевод: Оригинал [Лицензия]
Cубтитры: нет
Оригинальная аудиодорожка: русский
Режиссер: Алексей Герман
В ролях: Леонид Ярмольник, Юрий Цурило, Наталья Мотева, Александр Чутко, Евгений Герчаков, Валентин Голубенко, Пётр Меркурьев, Олег Ботин, Константин Быков, Юрий Думчев...
Описание: На планете, погружённой в глухое Средневековье, работают наблюдатели-земляне, которые пытаются бережно подправлять ход событий, не нарушая логическое развитие истории. Главный герой, дон Румата Эсторский, осознавая свою задачу сохранения нейтралитета, тем не менее, не выдерживает, когда в Арканаре (одном из городов планеты) захватывает Влacть «чёрное братство», свергнувшее господство «серых», столь же отвратительных, но не столь кровавых. Румата берётся за меч, чтобы покарать злодеев, и тем самым нарушает все правила и закономерности, вмешиваясь в чужой исторический процесс.
Бонусы: нет

Релиз группы:
Качество: DVD9 R5
Формат: DVD-Video
Видео кодек: MPEG2
Аудио кодек: AC3
Видео: PAL 16:9 (720x576(0.469)) MPEG Video, 25,000 кадр/сек, 4858 Кбит/сек
Аудио: Russian (Dolby AC3, 6 ch) 448 Кбит/сек, 48,0 КГц



Title: Trudno.byt.Bogom.2013.DVD9
Size: 6.84 Gb ( 7 174 934,00 KBytes ) - DVD-9
Enabled regions: 1, 2, 3, 4, 5, 6, 7, 8

VTS_01 :
Play Length: 00:00:25+{00:00:25}+{00:00:25}
Video: PAL 4:3 (720x576) VBR
Audio:
Russian (Dolby AC3, 6 ch)
English (Dolby AC3, 6 ch)
English (Dolby AC3, 6 ch)

VTS_02 :
Play Length: 02:50:07
Video: PAL 16:9 (720x576) VBR, Auto Pan&Scan, Auto Letterboxed
Audio:
Russian (Dolby AC3, 6 ch)

* Menus Information *

VIDEO_TS Menu
Video:
PAL 16:9 (720x576) VBR
Auto Pan&Scan, Auto Letterboxed
English Language Unit :
Title Menu

VTS_01 Menu
Video:
PAL 16:9 (720x576) VBR
Auto Letterboxed
Audio:
Not specified (Dolby AC3, 2 ch)
English Language Unit :
Root Menu
Chapter (PTT) Menu

VTS_02 Menu
Video:
PAL 4:3 (720x576) VBR
English Language Unit :
Root Menu
Chapter (PTT) Menu
Общее
Полное имя : D:\Новинки 2014\Trudno.byt.Bogom.2013.DVD9\VIDEO_TS\VTS_02_2.VOB
Формат : MPEG-PS
Размер файла : 1024 Мбайт
Продолжительность : 26 м.
Режим общего битрейта : Переменный
Общий поток : 5413 Кбит/сек

Видео
Идентификатор : 224 (0xE0)
Формат : MPEG Video
Версия формата : Version 2
Профиль формата : Main@Main
Параметр BVOP формата : Да
Параметр матрицы формата : Выборочная
Параметр GOP формата : M=3, N=15
Продолжительность : 26 м.
Вид битрейта : Переменный
Битрейт : 4858 Кбит/сек
Максимальный битрейт : 8500 Кбит/сек
Ширина : 720 пикселей
Высота : 576 пикселей
Соотношение сторон : 16:9
Частота кадров : 25,000 кадров/сек
Стандарт вещания : PAL
Цветовое пространство : YUV
Субдискретизация насыщенности : 4:2:0
Битовая глубина : 8 бит
Тип развёртки : Прогрессивная
Метод сжатия : С потерями
Бит/(Пиксели*Кадры) : 0.469
Временной код первого кадра : 00:26:27:20
Оригинал временного кода : Group of pictures header
Размер потока : 919 Мбайт (90%)

Аудио
Идентификатор : 189 (0xBD)-128 (0x80)
Формат : AC-3
Формат/Информация : Audio Coding 3
Расширение режима : CM (complete main)
Параметр Endianness формата : Big
Режим смешивания : DVD-Video
Продолжительность : 26 м.
Вид битрейта : Постоянный
Битрейт : 448 Кбит/сек
Каналы : 6 каналов
Расположение каналов : Front: L C R, Side: L R, LFE
Частота : 48,0 КГц
Битовая глубина : 16 бит
Метод сжатия : С потерями
Задержка видео : -840 мс.
Размер потока : 84,7 Мбайт (8%)










pb.wtf



Скачать Трудно быть Богом через торрент http://i63.fastpic.ru/big/2014/0518/d0/36277aa0aacbde3ac826c6abb322e4d0.jpg Скачать фильм Трудно быть Богом через торрент бесплантно в хорошем качестве Описание: На планете, погружённой в глухое Средневековье, работают наблюдатели-земляне, которые пытаются бережно подправлять ход событий, ... 9.8 10 4
Info! Золотая раздача, скачанное не засчитывается.
Торрент: Зарегистрирован [2014-05-17 22:12] · скачан: 102 раз
Статус: √ проверено
Размер: 6.84 GB
Как cкачать? Как скачать Трудно быть Богом через торрент | qTorrent

28-11-2019 20:33  

Отключить всю рекламу на сайте

18-05-2014 04:19 Трудно быть Богом Скачать торрент  

Данный фильм во время еды не смотреть - стошнит`с...pb.wtf



01-07-2014 15:09 Трудно быть Богом Скачать торрент  

Ждал этот фильм,посмотреть до конца не смог,дерьмо редкостное :sensored:pb.wtf



01-07-2014 15:09 Трудно быть Богом Скачать торрент  

Ждал этот фильм,посмотреть до конца не смог,дерьмо редкостное :sensored:pb.wtf



    Дорогой пользователь! Огромная просьба, поблагодарите релизера, оцените раздачу и оставьте свои комментарий, если Вы скачали Трудно быть Богом через торрент бесплатно! Внесите свою лепту в развитие PiratBit!
    Комментировать посты могут только пользователи прошедшие не сложную регистрацию
    Показать сообщения:    

    Трудно быть Богом через торрент
    Скачать бесплатно Трудно быть Богом
    Трудно быть Богом скачать торрент
    Трудно быть Богом смотреть онлайн
    Cкачать фильм Трудно быть Богом бесплатно
    Трудно быть Богом скачать торрент в хорошем качестве
    Трудно быть Богом смотреть онлайн бесплатно в хорошем качестве


    Вы не можете начинать темы
    Вы не можете отвечать на сообщения
    Вы не можете редактировать свои сообщения
    Вы не можете удалять свои сообщения
    Вы не можете голосовать в опросах
    Вы не можете прикреплять файлы к сообщениям
    Вы можете скачивать файлы