Ссылка на приватное зеркало всего за 1$. Внимание количество ограничено!!!

iTunes

iTunes

iTunes

1

iTunes

iTunes

iTunes

WEBRip

iTunes

30
pack

$ от Little Big

ВАЖНО

!!Акция!!

Alien_RageХит недели

RePack

Resident Evil 21

ИГРА 18+

pack

RePack

jed

!!Акция!!

Alien_Rage

RePack

fifa19

RePack

Assassins Creed: Odyssey

RePack

NEED FOR SPEED™ PAYBACK

4 сезон

9 сезон

Бесстыжие 9 сезон

Все сериалы

все сериалы на PB.wtf

RePack

FAR CRY 5
  

Му-Му (Юрий Грымов) [1998, Россия, драма, DVDRip] pb.wtf

Му-Му через торрент pb.wtf

Размер: 1.37 GB | Добавлен: 6 лет 2 мес. назад | Торрент скачан:126 раз
Скачать  

18-05-2014 00:04 Му-Му Скачать торрент  


Му-Му


Год выпуска: 1998
Страна:Россия
Жанр:драма
Продолжительность:01:36:19
Перевод:Не требуется
Субтитры: Нет
Режиссер:Юрий Грымов

  • В ролях:

    Ирина Апексимова (француженка Жюстина), Александр Балуев (Герасим), Андрей Халимон (деревенский мальчик), Елена Корикова (Татьяна), Алексей Кравченко, Людмила Максакова (барыня), Геннадий Назаров, Владимир Стеклов (Капитон), Евдокия Вишнякова (Наташа), Инна Сухарева, Ксения Соломяная, Сергей Рубеко

  • Описание:
    Алчный взгляд жаждущей плотской любви стареющей хозяйки останавливается на новом дворнике Герасиме. И не беда, что он глухой и немой, может быть, это даже и к лучшему - не будет болтать лишнего. Но Герасим и не помышляет о любовной интриге со своей госпожой. Он сходу влюбляется в юную очаровательную дворовую девушку Танечку и просит у хозяйки разрешения взять её в жены.
    Барыня же выдаёт Танюшу замуж за известного пропойцу Капитона и отсылает в дальнюю деревню. Убитый горем Герасим находит утешение в спасённой им маленькой дворняжке, которую он назвал «Му-Му». Но барыня теперь ревнует уже к собачке и требует, чтобы псину Герасим утопил. Тот подчиняется...

  • Мировая премьера:4 июня 1999


      Качество: DVDRip
      Формат: AVI
      Видео кодек: XviD
      Аудио кодек:AC3
      Видео: XviD, 720x432 (1.667), 1836 kbps, 25 fps, 0,236 bpp
      Аудио: AC3 / 2.0 / 48 kHz / 192 kbps / 16 bit


    Код:

    General
    Complete name                            : D:\Торенты\Mu.Mu.1998.XviD.DVDRip.ExKinoRay.avi
    Format                                   : AVI
    Format/Info                              : Audio Video Interleave
    File size                                : 1.37 GiB
    Duration                                 : 1h 36mn
    Overall bit rate                         : 2 040 Kbps

    Video
    ID                                       : 0
    Format                                   : MPEG-4 Visual
    Format profile                           : Simple@L3
    Format settings, BVOP                    : No
    Format settings, QPel                    : No
    Format settings, GMC                     : No warppoints
    Format settings, Matrix                  : Default (H.263)
    Codec ID                                 : XVID
    Codec ID/Hint                            : XviD
    Duration                                 : 1h 36mn
    Source duration                          : 1h 36mn
    Bit rate                                 : 1 837 Kbps
    Width                                    : 720 pixels
    Height                                   : 432 pixels
    Display aspect ratio                     : 1.667
    Frame rate                               : 25.000 fps
    Color space                              : YUV
    Chroma subsampling                       : 4:2:0
    Bit depth                                : 8 bits
    Scan type                                : Progressive
    Compression mode                         : Lossy
    Bits/(Pixel*Frame)                       : 0.236
    Stream size                              : 1.24 GiB (90%)
    Writing library                          : XviD 1.1.2 (UTC 2006-11-01)

    Audio
    ID                                       : 1
    Format                                   : AC-3
    Format/Info                              : Audio Coding 3
    Mode extension                           : CM (complete main)
    Codec ID                                 : 2000
    Duration                                 : 1h 36mn
    Bit rate mode                            : Constant
    Bit rate                                 : 192 Kbps
    Channel(s)                               : 2 channels
    Channel positions                        : Front: L R
    Sampling rate                            : 48.0 KHz
    Bit depth                                : 16 bits
    Compression mode                         : Lossy
    Stream size                              : 132 MiB (9%)
    Alignment                                : Aligned on interleaves
    Interleave, duration                     : 32 ms (0.80 video frame)

    Скриншоты:

    Каталог Новинок (Фильмы-трейлеры, Игры, Сериалы, Мультфильмы)

    © Оформление by Raven
    pb.wtf



  • Скачать Му-Му через торрент http://pic.kartinco.top/images/6/stazu.jpg Скачать фильм Му-Му через торрент бесплантно в хорошем качестве Описание:Алчный взгляд жаждущей плотской любви стареющей хозяйки останавливается на новом дворнике Герасиме. И не беда, что он глухой и ... 10 10 9
    Info! Золотая раздача, скачанное не засчитывается.
    Торрент: Зарегистрирован [2014-05-18 00:04] · скачан: 126 раз
    Статус: √ проверено
    Размер: 1.37 GB
    Как cкачать? Как скачать Му-Му через торрент | qTorrent

    % Раздел Тема Автор DL S | L
    Иностранные мультфильмы [ 1.37 GB ] Барби и три мушкетера / Barbie and the Three Musketeers [2009 мультфильм DVDRip] L_E_X Скачать
    1 | 0
    Иностранные мультфильмы [ 1.37 GB ] Король-лев 2: Гордость Симбы / The Lion King II: Simba's Pride [1998 мюзикл мультфильм DVDRip] Anonymous Скачать
    1 | 0
    Наши фильмы, до 2010 [ 1.37 GB ] Здравствуйте мы ваша крыша! [2006 DVDRip] TeRm0 Скачать
    1 | 0
    Фильмы 2009 [ 1.37 GB ] Рок-волна / The Boat That Rocked [2009 музыка DVDRip] paul08 Скачать
    1 | 0
    Фильмы 2006-2008 [ 1.46 GB ] Семь жизней / Seven Pounds [2008 DVDRip] paul08 Скачать
    2 | 0
    Приключения, Квесты, Логические [ 4.25 GB ] Петька 9: Пролетарский гламуръ SKAV Скачать
    1 | 0
    Фильмы 2006-2008 [ 1.37 GB ] Омен / The Omen [2006 DVDRip] DEVI Скачать
    1 | 0

    28-11-2019 20:33  

    Отключить всю рекламу на сайте

    18-05-2014 03:49 Му-Му Скачать торрент  

    Несколько слов о наградах:

    - Приз «Золотые кисти кино, телевидения и театра» министерства культуры Франции (1998 г.). За лучший дебют — Юрий Грымов.

    - Первый приз МКФ «Арсенал» в Риге (1998 г.) — режиссёру Юрию Грымову.

    - Премия «Ника» (1998 г.). За лучшую операторскую работу — Юрий Клименко.

    - Специальный диплом Президентского совета на ОРКФ в Сочи «За яркое визуальное воплощение классического сюжета» (1998 г.) — Юрию Грымову.

    - Приз им. Таривердиева (на том же кинофестивале) за лучшую музыку к фильму — Владимиру Дашкевичу.

    - Приз «Золотой Витязь» за лучший игровой фильм на МКФ славянских и православных народов (1999 г.). «Золотой Витязь».

    - Приз за лучшую роль второго плана (на том же кинофестивале) — Елене Кориковой.

    - Специальный приз жюри и большой приз жюри- Юрию Грымову на РКФ «Литература и кино» в Гатчине (1999 г.).

    - Приз за лучшую женскую роль (на том же кинофестивале)- Людмиле Максаковой.
    Фильм бесподобный! Казалось бы, что ещё можно вытянуть из рассказа, надоевшего всем в школе? Но режиссер-дебютант-новатор Юрий Грымов привнес в него столько своего видения, что Тургенев бы его вместо Му-Му...
    А впрочем, лучше посмотрите сами. sarcasticpb.wtf



      Дорогой пользователь! Огромная просьба, поблагодарите релизера, оцените раздачу и оставьте свои комментарий, если Вы скачали Му-Му через торрент бесплатно! Внесите свою лепту в развитие PiratBit!
      Комментировать посты могут только пользователи прошедшие не сложную регистрацию
      Показать сообщения:    

      Му-Му через торрент
      Скачать бесплатно Му-Му
      Му-Му скачать торрент
      Му-Му смотреть онлайн
      Cкачать фильм Му-Му бесплатно
      Му-Му скачать торрент в хорошем качестве
      Му-Му смотреть онлайн бесплатно в хорошем качестве


      Вы не можете начинать темы
      Вы не можете отвечать на сообщения
      Вы не можете редактировать свои сообщения
      Вы не можете удалять свои сообщения
      Вы не можете голосовать в опросах
      Вы не можете прикреплять файлы к сообщениям
      Вы можете скачивать файлы