2 сезон

iTunes

1 сезон

1

iTunes

iTunes

iTunes

1 сезон

RePack

30

ИГРА 18+

pack

ВАЖНО

!!Акция!!

Alien_RageХит недели

RePack

MK11
pack

Забери бонус

RePack

jed

!!Акция!!

Alien_Rage

RePack

fifa19

RePack

Assassins Creed: Odyssey

RePack

NEED FOR SPEED™ PAYBACK

4 сезон

9 сезон

Бесстыжие 9 сезон

Все сериалы

все сериалы на PB.wtf

RePack

FAR CRY 5
  

Бивис и Батт-Хед уделывают Америку / Beavis and Butt-Head Do America (Майк Джадж) [1996, Мультфильм, Комедия, Приключения, Криминал, WEB-DLRip] [MVO] [Лицензия] pb.wtf

Бивис и Батт-Хед уделывают Америку через торрент pb.wtf

Размер: 1.48 GB | Добавлен: 6 лет 5 мес. назад | Торрент скачан:298 раз
Скачать  

18-05-2014 11:16 Бивис и Батт-Хед уделывают Америку Скачать торрент  

Бивис и Батт-Хед уделывают Америку / Beavis and Butt-Head Do America
«Coming to a screen bigger than your TV»
Год: 1996
Страна: США
Жанр: мультфильм, комедия, криминал, приключения
Режиссер: Майк Джадж / Mike Judge, Майк де Севе / Mike de Seve, Брайан Малруни / Brian Mulroney
Сценарий: Майк Джадж, Джо Стиллман, Брайан Малруни
Продюсер: Майкл Блейки, Дэвид Гэйл, Эбби Теркюл
Композитор: Джон Фриззелл
Рейтинг MPAA: Рейтинг PG-13
Продолжительность: 01:20:52
Перевод:
Перевод #1 Профессиональный (многоголосый, закадровый) [Лицензия DVD R5]
Перевод #2 Профессиональный (многоголосый, закадровый) [Лицензия Universal (2009)]
Перевод #3 Оригинал + Субтитры (Русские,Английские)
В ролях:

Описание:Из дома Бивиса и Батт-Хеда похищают телевизор. В поисках любимого развлечения друзья встречают опасного преступника Мади, который, приняв их за наёмных убийц, отправляет Бивиса и Батт-Хеда в Лас-Вегас. Мади предлагает неплохие деньги за то, чтобы мальчики «сделали» его жену. Бивис и Батт-Хед соглашаются, потому что надеются, что им наконец-то дадут.В Лас-Вегасе Бивис и Батт-Хед знакомятся с Даллас, женой Мади. Она зашивает в штаны Бивиса похищенный из секретной исследовательской лаборатории блок «X-5». Даллас заказывает билеты для мальчиков на туристический автобус, который направляется в Вашингтон. Федеральная служба безопасности начинает охоту на Бивиса и Батт-Хеда, которые традиционно начинают попадать в передряги и отравлять жизнь всем жителям США.
Бюджет: $12 000 000
Сборы:
  • США: $63 118 386
    Рейтинг:
    • Перед премьерным показом «Бивис и Баттхед уделывают Америку» на MTV (7 августа 1999 года) из фильма была вырезана одна сцена. Во время экскурсии по Национальному архиву США Бивис пошёл в туалет. Не обнаружив туалетной бумаги, герой отправился в выставочный зал, где наткнулся на витрину с декларацией независимости США. В то время как охранник заснул, Бивис взял флаг США и разбил им стекло, защищавшее исторический документ. В зале сработала сигнализация, и работники службы безопасности бросились на поиски злоумышленника. Однако Бивису удалось остаться незамеченным и добраться до туалета, где он справил свою нужду и «подтёрся» декларацией независимости США.
    Премьера: Мировая 15 декабря 1996;
    Качество: WEB-DLRip
    Формат: AVI [1.48 GiB]
    Видео: XviD, 720x400 (16:9), 1379 kbps (0.200 b/px), 23.98 fps
    Аудио #1: AC3, 448 kbps (CBR), 48.0 KHz (16 bits), 6 ch
    Аудио #2: AC3, 384 kbps (CBR), 48.0 KHz (16 bits), 6 ch
    Аудио #3: AC3, 384 kbps (CBR), 48.0 KHz (16 bits), 6 ch

    Код:

    General
    Complete name                            : D:\Рипы выкладка [Deadmauvlad]\Рипы готовые\Beavis.and.Butt-Head.Do.America.1996.WEB-DLRip.Rus.Eng_Deadmauvlad\Beavis.and.Butt-Head.Do.America.1996.WEB-DLRip.Rus.Eng_Deadmauvlad.avi
    Format                                   : AVI
    Format/Info                              : Audio Video Interleave
    File size                                : 1.48 GiB
    Duration                                 : 1h 20mn
    Overall bit rate                         : 2 613 Kbps
    Movie name                               : Beavis.and.Butt-Head.Do.America.1996.WEB-DLRip.Rus.Eng_Deadmauvlad
    Director                                 : Deadmauvlad
    Genre                                    : мультфильм,комедия,криминал
    Writing application                      : VirtualDubMod 1.5.10.3 | www.virtualdub-fr.org || (build 2550/release)
    Original source form/Name                : Мультфильм
    Copyright                                : Goldenshara

    Video
    ID                                       : 0
    Format                                   : MPEG-4 Visual
    Format profile                           : Advanced Simple@L5
    Format settings, BVOP                    : 1
    Format settings, QPel                    : No
    Format settings, GMC                     : No warppoints
    Format settings, Matrix                  : Custom
    Codec ID                                 : XVID
    Codec ID/Hint                            : XviD
    Duration                                 : 1h 20mn
    Bit rate                                 : 1 378 Kbps
    Width                                    : 720 pixels
    Height                                   : 400 pixels
    Display aspect ratio                     : 16:9
    Frame rate                               : 23.976 fps
    Color space                              : YUV
    Chroma subsampling                       : 4:2:0
    Bit depth                                : 8 bits
    Scan type                                : Progressive
    Compression mode                         : Lossy
    Bits/(Pixel*Frame)                       : 0.200
    Stream size                              : 797 MiB (53%)
    Writing library                          : XviD 73

    Audio #1
    ID                                       : 1
    Format                                   : AC-3
    Format/Info                              : Audio Coding 3
    Mode extension                           : CM (complete main)
    Format settings, Endianness              : Big
    Codec ID                                 : 2000
    Duration                                 : 1h 20mn
    Bit rate mode                            : Constant
    Bit rate                                 : 448 Kbps
    Channel(s)                               : 6 channels
    Channel positions                        : Front: L C R, Side: L R, LFE
    Sampling rate                            : 48.0 KHz
    Bit depth                                : 16 bits
    Compression mode                         : Lossy
    Stream size                              : 259 MiB (17%)
    Alignment                                : Split accross interleaves
    Interleave, duration                     : 42 ms (1.00 video frame)
    Interleave, preload duration             : 500 ms

    Audio #2
    ID                                       : 2
    Format                                   : AC-3
    Format/Info                              : Audio Coding 3
    Mode extension                           : CM (complete main)
    Format settings, Endianness              : Big
    Codec ID                                 : 2000
    Duration                                 : 1h 20mn
    Bit rate mode                            : Constant
    Bit rate                                 : 384 Kbps
    Channel(s)                               : 6 channels
    Channel positions                        : Front: L C R, Side: L R, LFE
    Sampling rate                            : 48.0 KHz
    Bit depth                                : 16 bits
    Compression mode                         : Lossy
    Stream size                              : 222 MiB (15%)
    Alignment                                : Split accross interleaves
    Interleave, duration                     : 42 ms (1.00 video frame)
    Interleave, preload duration             : 500 ms

    Audio #3
    ID                                       : 3
    Format                                   : AC-3
    Format/Info                              : Audio Coding 3
    Mode extension                           : CM (complete main)
    Format settings, Endianness              : Big
    Codec ID                                 : 2000
    Duration                                 : 1h 20mn
    Bit rate mode                            : Constant
    Bit rate                                 : 384 Kbps
    Channel(s)                               : 6 channels
    Channel positions                        : Front: L C R, Side: L R, LFE
    Sampling rate                            : 48.0 KHz
    Bit depth                                : 16 bits
    Compression mode                         : Lossy
    Stream size                              : 222 MiB (15%)
    Alignment                                : Split accross interleaves
    Interleave, duration                     : 42 ms (1.00 video frame)
    Interleave, preload duration             : 500 ms

    скриншот   скриншот   скриншот   скриншот   скриншот   скриншот   скриншот   скриншот   скриншот   скриншот  
    pb.wtf



Скачать Бивис и Батт-Хед уделывают Америку через торрент http://6.firepic.org/6/images/2014-05/18/qrvth4h5lvjr.jpg Скачать фильм Бивис и Батт-Хед уделывают Америку через торрент бесплантно в хорошем качестве Описание:Из дома Бивиса и Батт-Хеда похищают телевизор. В поисках любимого развлечения друзья встречают опасного преступника Мади, который, ... 10 10 12
Торрент: Зарегистрирован [2014-05-18 11:16] · скачан: 298 раз
Статус: √ проверено
Размер: 1.48 GB
Как cкачать? Как скачать Бивис и Батт-Хед уделывают Америку через торрент | qTorrent

% Раздел Тема Автор DL S | L
Иностранные мультфильмы [ 1.37 GB ] Бивис и Батт-Хед / Beavis and Butt-Head Do America [1996 мультфильм DVDRip многоголосый] Бумер Скачать
1 | 0
Иностранные мультфильмы [ 1.37 GB ] Бивис и Баттхед уделывают Америку / Beavis and Butt-Head Do America [1996 DVDRip] anton41159 Скачать
1 | 0

28-11-2019 20:33  

Отключить всю рекламу на сайте

18-05-2014 11:36 Бивис и Батт-Хед уделывают Америку Скачать торрент  

кстати На русском языке всех персонажей мультфильма (кроме первого сезона, который не был показан по MTV-Россия) озвучивал Сергей Чонишвили, привнесший также прозвища героев «Баклан» и «Пельмень».pb.wtf



18-05-2014 12:05 Бивис и Батт-Хед уделывают Америку Скачать торрент  

Отличный мульт моего детстваpb.wtf



18-05-2014 15:03 Бивис и Батт-Хед уделывают Америку Скачать торрент  

Эх школьные годы...pb.wtf



    Дорогой пользователь! Огромная просьба, поблагодарите релизера, оцените раздачу и оставьте свои комментарий, если Вы скачали Бивис и Батт-Хед уделывают Америку через торрент бесплатно! Внесите свою лепту в развитие PiratBit!
    Комментировать посты могут только пользователи прошедшие не сложную регистрацию
    Показать сообщения:    

    Бивис и Батт-Хед уделывают Америку через торрент
    Скачать бесплатно Бивис и Батт-Хед уделывают Америку
    Бивис и Батт-Хед уделывают Америку скачать торрент
    Бивис и Батт-Хед уделывают Америку смотреть онлайн
    Cкачать фильм Бивис и Батт-Хед уделывают Америку бесплатно
    Бивис и Батт-Хед уделывают Америку скачать торрент в хорошем качестве
    Бивис и Батт-Хед уделывают Америку смотреть онлайн бесплатно в хорошем качестве


    Вы не можете начинать темы
    Вы не можете отвечать на сообщения
    Вы не можете редактировать свои сообщения
    Вы не можете удалять свои сообщения
    Вы не можете голосовать в опросах
    Вы не можете прикреплять файлы к сообщениям
    Вы можете скачивать файлы