Всегда рабочее зеркало просто перед .vidak.icu напиши любое слово или цифру, Пример http://79p.vidak.icu

>

7.4

iTunes

7.4

2 сезон

6.6

iTunes

1

7.4

2 сезон

7.2

iTunes

6.0

MVO

13

6.1

iTunes

8.3

Пиратка

30

ULTIMATE

pack

9.9

Лицензия

ВАЖНО

ИГРА 18+

pack

7.3

RePack

MK11

7.7

RePack

jed

7.8

RePack

fifa19

8.5

RePack

RDR2

RePack

NEED FOR SPEED™ PAYBACK

1 сезон

9 сезон

Бесстыжие 9 сезон

Все сериалы

все сериалы на PB.wtf

RePack

FAR CRY 5

Anonymous, добрый вечер, мы катастрофически не успеваем собрать деньги на оплату серверов, помогите нам пожалуйста 5,10,15р., для нас важна любая помощь . В качестве благодарности мы отключим Вам всю рекламу на сайте (укажите свой ник в строку Ваше имя)!

×
  
Magnet ссылка

Боже, благослови Америку! / God Bless America (Боб Голдтуэйт / Bob Goldthwait) [2011, Черная комедия, криминал, BDRip] [AVO] (А.Карповский) pb.wtf

Боже, благослови Америку! через торрент pb.wtf

Размер: 1.71 GB | Добавлен: 7 лет 8 мес. назад | Торрент скачан:154 раза
Смотреть онлайн Боже, благослови Америку! | Скачать    Ребята, помогите собрать деньги на оплату серверов!!!

19-05-2014 09:06 Боже, благослови Америку! Скачать торрент  

Боже, благослови Америку! / God Bless America
Год выпуска: 2011
Страна: США
Жанр: Черная комедия, криминал
Продолжительность: 01:44:22
Перевод: Авторский (одноголосый, закадровый) [А.Карповский]
Присутствует ненормативная лексика!

Режиссер: Боб Голдтуэйт / Bob Goldthwait

В ролях: Джоэль Мюррей, Тара Барр, Маккензи Брук Смит, Мелинда Пейдж Хэмилтон, Рич МакДональд, Мэдди Хассон, Ларри Миллер, Дори Бартон, Трэвис Уэстер, Лорен Бенц Филлипс

Описание: Фрэнк страшно устал от того, что его окружают алчные, тупые и равнодушные недоноски, коих усердно плодит американская земля. Поэтому, узнав, что у него опухоль мозга, он берет в руки оружие и, прихватив с собой боевую подругу Рокси, едет вбивать в сограждан разумное, доброе, вечное - с помощью свинца...

Качество видео: BDRip
Формат видео: AVI
Видео кодек: XviD
Аудио кодек: AC3
Видео: 720x304 (2.37:1), 23.976 fps, XviD MPEG-4 ~1945 kbps avg, 0.37 bit/pixel
Аудио: 48 kHz, AC3 Dolby Digital, 3/2 (L,C,R,l,r) + LFE ch, ~384.00 kbps avg
General
Complete name : E:\INTERNET\Bozhe.blagoslovi.Ameriku.2011.XviD.BDRip.avi
Format : AVI
Format/Info : Audio Video Interleave
File size : 1.71 GiB
Duration : 1h 44mn
Overall bit rate : 2 339 Kbps
Movie name : Боже, благослови Америку! / God Bless America (2011) BDRip

Writing application : VirtualDubMod 1.5.10.2 (build 2540/release)
Writing library : VirtualDubMod build 2540/release

Video
ID : 0
Format : MPEG-4 Visual
Format profile : Advanced Simple@L5
Format settings, BVOP : 1
Format settings, QPel : No
Format settings, GMC : No warppoints
Format settings, Matrix : Custom
Codec ID : XVID
Codec ID/Hint : XviD
Duration : 1h 44mn
Bit rate : 1 946 Kbps
Width : 720 pixels
Height : 304 pixels
Display aspect ratio : 2.35:1
Frame rate : 23.976 fps
Color space : YUV
Chroma subsampling : 4:2:0
Bit depth : 8 bits
Scan type : Progressive
Compression mode : Lossy
Bits/(Pixel*Frame) : 0.371
Stream size : 1.42 GiB (83%)
Writing library : XviD 65

Audio
ID : 1
Format : AC-3
Format/Info : Audio Coding 3
Mode extension : CM (complete main)
Codec ID : 2000
Duration : 1h 44mn
Bit rate mode : Constant
Bit rate : 384 Kbps
Channel(s) : 6 channels
Channel positions : Front: L C R, Side: L R, LFE
Sampling rate : 48.0 KHz
Bit depth : 16 bits
Compression mode : Lossy
Stream size : 287 MiB (16%)
Alignment : Split accross interleaves
Interleave, duration : 42 ms (1.00 video frame)
Interleave, preload duration : 500 ms
pb.wtf



Скачать Боже, благослови Америку! через торрент http://i50.fastpic.ru/big/2013/0801/df/d4e4201fa8a45a586a9e4250b059ffdf.jpg Скачать, смотреть онлайн Боже, благослови Америку! бесплантно в хорошем качестве Описание: Фрэнк страшно устал от того, что его окружают алчные, тупые и равнодушные недоноски, коих усердно плодит американская земля. ... 9.7 10 11
Торрент: Зарегистрирован [2014-05-19 09:06] · скачан: 154 раз
Статус: √ проверено
Размер: 1.71 GB
Как cкачать? Как скачать Боже, благослови Америку! через торрент | UTorrent

% Раздел Тема Автор DL S | L
Фильмы 2011 [ 2.18 GB ] Боже Благослови Америку / God Bless America [2011 чёрная HDRip-AVC] MVO + DVO + VO + Original Eng sokol_ok Скачать
3 | 0
Фильмы (DVD фильмы) [ 6.78 GB ] Боже благослови Америку! / God Bless America [2011 DVD9] / MVO shuller Скачать
1 | 0
Фильмы 2011 [ 1.45 GB ] Боже Благослови Америку / God Bless America [2011 чёрная социальная HDRip ] Ворон Скачать
1 | 0
Фильмы [HD 720p, 1080p] (Хороший звук DUB, MVO) [ 5.12 GB ] Боже благослови Америку / God Bless America [2011 BDRip + Оригинал] AlexKa Скачать
1 | 0
Фильмы 2011 [ 701 MB ] Боже Благослови Америку / God Bless America [2011 чёрная социальная HDRip ] Ворон Скачать
1 | 0

28-11-2019 20:33  

Отключить всю рекламу на сайте

19-05-2014 14:53 Боже, благослови Америку! Скачать торрент  

"Фрэнк страшно устал от того, что его окружают алчные, тупые и равнодушные недоноски, коих усердно плодит американская земля."-Ну прямо не в бровь,а в глаз!Лучше и не скажешь про эту Пиндосию! roflpb.wtf



23-05-2014 14:35 Боже, благослови Америку! Скачать торрент  

Бомбовый фильм, обезбашенный!pb.wtf



06-02-2017 01:56 Боже, благослови Америку! Скачать торрент  

фильм огонь!pb.wtf



    Дорогой пользователь! Огромная просьба, поблагодарите релизера, оцените раздачу и оставьте свои комментарий, если Вы скачали Боже, благослови Америку! через торрент бесплатно!
    Комментировать посты могут только пользователи прошедшие не сложную регистрацию
    Показать сообщения:    

    Боже, благослови Америку! через торрент
    Скачать бесплатно Боже, благослови Америку!
    Боже, благослови Америку! скачать торрент
    Боже, благослови Америку! смотреть онлайн
    Cкачать фильм Боже, благослови Америку! бесплатно
    Боже, благослови Америку! скачать торрент в хорошем качестве
    Боже, благослови Америку! смотреть онлайн бесплатно в хорошем качестве


    Вы не можете начинать темы
    Вы не можете отвечать на сообщения
    Вы не можете редактировать свои сообщения
    Вы не можете удалять свои сообщения
    Вы не можете голосовать в опросах
    Вы не можете прикреплять файлы к сообщениям
    Вы можете скачивать файлы