Ссылка на приватное зеркало нашего сайта всего за 1$. Внимание количество ограничено!!!

2 сезон

iTunes

1 сезон

1

iTunes

iTunes

iTunes

1 сезон

RePack

30

ИГРА 18+

pack

ВАЖНО

!!Акция!!

Alien_RageХит недели

RePack

MK11
pack

Забери бонус

RePack

jed

!!Акция!!

Alien_Rage

RePack

fifa19

RePack

Assassins Creed: Odyssey

RePack

NEED FOR SPEED™ PAYBACK

4 сезон

9 сезон

Бесстыжие 9 сезон

Все сериалы

все сериалы на PB.wtf

RePack

FAR CRY 5
  

Балабол / Одинокий волк Саня / Серии: 1-16 из 16 ( Владимир Мельник (II) ) [2013 г., Иронический детектив, SATRip] pb.wtf

Балабол через торрент pb.wtf

Размер: 8.38 GB | Добавлен: 6 лет 5 мес. назад | Торрент скачан:812 раз
Скачать  

19-05-2014 19:28 Балабол Скачать торрент  

Балабол / Одинокий волк Саня
Год выпуска: 2013
Страна: Россия Кинокомпания DT Production
Жанр: Иронический детектив
Продолжительность: 16 x ~ 00:44:00
Режиссер: Владимир Мельник (II)
Продюссер: Рауф Атамалибеков, Михаил Соколов
Сценарий: Андрей Шишов
Премьера в мире: 2 декабря 2013

В ролях: Константин Юшкевич, Вадим Андреев, Гоша Куценко, Оксана Сташенко, Вадим Дорофеев, Мария Пирогова, Александр Самойлов, Инга Оболдина, Ирина Низина, Иван Агапов, Карина Разумовская, Алексей Михайлов (II), Тимур Ефременков, Александр Числов, Виктор Конухин, Влад Канопка, Дмитрий Мазуров, Игорь Старосельцев, Дмитрий Блажко
Описание: Каждые две серии иронического детектива «Одинокий волк Саня» – отдельная история, в которой бравый провинциальный опер, «одинокий волк» с несерьезным именем Саня, распутывает безнадежные на взгляд его коллег преступления. Детективная составляющая – основа каждой истории, но внутри сюжета – столкновение характеров героев, их семейные дела, изменения, которые происходят с каждым из них по ходу действия. Зрители увидят, как мужает и превращается из наивного и избалованного юнца в настоящего профессионала стажер Карандышев по прозвищу Кузнечик; как в своих чувствах к бывшей жене разбирается сам Саня; как любовь и внимание отца пытается завоевать дочь опера Маша.
Качество: SATRip
Формат: AVI
Видео кодек: XviD
Аудио кодек: MP3
Видео: Xvid 720x384, 25.000fps, 1 699 Kbps
Аудио: MP3, 48000Hz, stereo, 192kbps
Релиз от: simka





Format : AVI
Format/Info : Audio Video Interleave
File size : 612 MiB
Duration : 43mn 17s
Overall bit rate : 1 978 Kbps
Writing application : VirtualDubModRus 1.5.10.2 (build 2542/release)
Writing library : VirtualDubMod build 2542/release

Video
ID : 0
Format : MPEG-4 Visual
Codec ID : XVID
Codec ID/Hint : XviD
Duration : 43mn 17s
Bit rate : 1 699 Kbps
Width : 720 pixels
Height : 384 pixels
Display aspect ratio : 1.85:1
Frame rate : 25.000 fps
Color space : YUV
Chroma subsampling : 4:2:0
Compression mode : Lossy
Bits/(Pixel*Frame) : 0.246
Stream size : 526 MiB (86%)

Audio
ID : 1
Format : MPEG Audio
Codec ID : 55
Codec ID/Hint : MP3
Duration : 43mn 17s
Bit rate : 192 Kbps
Channel(s) : 2 channels
Sampling rate : 48.0 KHz
Compression mode : Lossy
Stream size : 59.5 MiB (10%)
Alignment : Aligned on interleaves

pb.wtf



Скачать Балабол через торрент http://pic.kartinco.top/images/6/xeqm8.jpg Скачать фильм Балабол через торрент бесплантно в хорошем качестве Описание: Каждые две серии иронического детектива «Одинокий волк Саня» – отдельная история, в которой бравый провинциальный опер, ... 9.4 10 28
Info! Золотая раздача, скачанное не засчитывается.
Торрент: Зарегистрирован [2014-05-19 19:28] · скачан: 812 раз
Статус: √ проверено
Размер: 8.38 GB
Как cкачать? Как скачать Балабол через торрент | qTorrent

% Раздел Тема Автор DL S | L
Наши сериалы [ 10.06 GB ] Балабол / Одинокий волк Саня / Сезон: 3 / Серии: 1-16 из 16 [2019 WEB-DLRip] bober100 Скачать
1 | 0
Наши сериалы [ 12.24 GB ] Балабол / Одинокий волк Саня / Сезон: 3 / Серии: 1-16 из 16 [2019 WEBRip-AVC] bober100 Скачать
1 | 0
Наши сериалы [ 23.4 GB ] Балабол / Одинокий волк Саня / Сезон: 3 / Серии: 1-16 из 16 [2019 WEB-DL 720p] bober100 Скачать
1 | 0
Наши сериалы [ 34.43 GB ] Балабол / Одинокий волк Саня / Сезон: 3 / Серии: 1-16 из 16 [2019 WEB-DL 1080p] bober100 Скачать
1 | 0
Наши сериалы [ 9.37 GB ] Балабол / Одинокий волк Саня / Сезон: 3 / Серии: 1-16 из 16 [2019 SATRip] bober100 Скачать
2 | 0

28-11-2019 20:33  

Отключить всю рекламу на сайте

    Дорогой пользователь! Огромная просьба, поблагодарите релизера, оцените раздачу и оставьте свои комментарий, если Вы скачали Балабол через торрент бесплатно! Внесите свою лепту в развитие PiratBit!
    Комментировать посты могут только пользователи прошедшие не сложную регистрацию
    Показать сообщения:    

    Балабол через торрент
    Скачать бесплатно Балабол
    Балабол скачать торрент
    Балабол смотреть онлайн
    Cкачать фильм Балабол бесплатно
    Балабол скачать торрент в хорошем качестве
    Балабол смотреть онлайн бесплатно в хорошем качестве


    Вы не можете начинать темы
    Вы не можете отвечать на сообщения
    Вы не можете редактировать свои сообщения
    Вы не можете удалять свои сообщения
    Вы не можете голосовать в опросах
    Вы не можете прикреплять файлы к сообщениям
    Вы можете скачивать файлы