Ссылка на приватное зеркало всего за 1$. Внимание количество ограничено!!!

OK

1+1

iTunes

мы

OK

1

WEB-DLRip

Джокер

Пифагор

Ведьмак / The Witcher сериал

iTunes

ПШазам

ОК

Оно 2

iTunes

30
pack

Вам бонус

ВАЖНО

!!Акция!!

Alien_RageХит недели

RePack

Resident Evil 21

ИГРА 18+

pack

RePack

jed

RePack

fifa19

RePack

Assassins Creed: Odyssey

RePack

NEED FOR SPEED™ PAYBACK

4 сезон

9 сезон

Бесстыжие 9 сезон

Все сериалы

все сериалы на PB.wtf

RePack

FAR CRY 5
  

Добыча / Жертва / Prey / Сезон: 1 / Серии: 1-3 из 3 (Ник Мерфи) [2014 г., Триллер, криминал, HDTVRip 720p] VO [R.A.I.M] pb.wtf

Добыча через торрент pb.wtf

Размер: 2.44 GB | Добавлен: 5 лет 8 мес. назад | Торрент скачан:99 раз
Скачать  

20-05-2014 10:13 Добыча Скачать торрент  

Добыча / Жертва
Год выпуска: 2014
Страна: Великобритания Red Production Company
Жанр: Триллер, криминал
Продолжительность: 3 x ~ 00:45:51
Перевод: Любительский одноголосый [R.A.I.M]

Режиссер: Ник Мерфи
Продюссер: Том Шерри, Никола Шиндлер
Сценарий: Chris Lunt

Премьера в мире: 28 апреля 2014



В ролях: Джон Симм, Рози Кавальеро, Эдриен Эдмондсон, Бенедикт Вонг, Хью О’Брайэн, Даррен Уитфилд, Рэй Эммет Браун, Мэрил Хэмптон, Анастасия Хилл
Описание: Маркус Фэрроу работает полицейским в небольшом городке. В обязанности детектива-констебля входит раскрытие сложных и резонансных преступлений. После тяжелой и изнуряющей работы, каждый вечер мужчина возвращается домой, где его ждет уют, тепло, любящая семья: жена и двое сыновей Макс и Финн. Очередной вызов на место преступления, казалось бы, не сулил ничего страшного. Прибыв в неспокойный район, детектив Фэрроу оказался в гуще жуткого обстоятельства. Все сложилось не в лучшую сторону для Маркуса, улики, отпечатки прямиком указывают на его виновность. Понятно, что его подставили, но доказать обратное практически невозможно. В жизни семьи Фэрроу как раз не самые лучшие времена, начались проблемы с воспитанием детей, да и супруги стали хуже понимать друг друга. Чтобы разобраться в сложной ситуации, в которую попал сыщик Маркус Фэрроу, необходимо смотреть сериал «Добыча/Жертва» бесплатно. Маркус пытается доказать свою невиновность, но полицмены идут у него по пятам. Ему приходится скрываться. В качестве главного следователя по делу назначают сержанта Сьюзан Райнхардт. Девушка обладает большим опытом и талантом в поисках преступников, но ведь Фэрроу также знает все уловки по поимке виновников. И начинается интригующая, захватывающая игра, в которой главные персонажи пытаются разобраться в ужасной головоломке. Для Сьюзан главная задача – найти Маркуса, а для Маркуса Фэрроу – не только бежать, но и найти доказательства своей непричастности к преступлению...

Качество: HDTVRip
Формат: MKV
Видео кодек: MPEG4
Аудио кодек: AC3
Видео: MPEG4 Video (H264) 1280x720, 25.000fp, 2 220 Kbps
Аудио: Dolby AC3, 48000Hz, stereo, 192kbps
Релиз от: kino0000000





General
Unique ID : 231543284184350634816540624277389930807 (0xAE319D4C26F6EC4AB0EC51C73FC77137)
Complete name : K:\12 03 2014\Zhertva_2014\prey.s01e01.720p.hdtv .mkv
Format : Matroska
Format version : Version 4 / Version 2
File size : 807 MiB
Duration : 45mn 51s
Overall bit rate : 2 461 Kbps
Encoded date : UTC 2014-05-08 20:12:53
Writing application : mkvmerge v6.9.1 ('Blue Panther') 32bit built on Apr 18 2014 18:15:44
Writing library : libebml v1.3.0 + libmatroska v1.4.1

Video
ID : 1
Format : AVC
Format/Info : Advanced Video Codec
Format profile : High@L4.1
Format settings, CABAC : Yes
Format settings, ReFrames : 5 frames
Codec ID : V_MPEG4/ISO/AVC
Duration : 45mn 51s
Bit rate : 2 220 Kbps
Width : 1 280 pixels
Height : 720 pixels
Display aspect ratio : 16:9
Frame rate mode : Constant
Frame rate : 25.000 fps
Color space : YUV
Chroma subsampling : 4:2:0
Bit depth : 8 bits
Scan type : Progressive
Bits/(Pixel*Frame) : 0.096
Stream size : 728 MiB (90%)
Writing library : x264 core 142 r2431 ac76440
Encoding settings : cabac=1 / ref=5 / deblock=1:0:0 / analyse=0x3:0x113 / me=umh / subme=8 / psy=1 / psy_rd=1.00:0.00 / mixed_ref=1 / me_range=16 / chroma_me=1 / trellis=1 / 8x8dct=1 / cqm=0 / deadzone=21,11 / fast_pskip=1 / chroma_qp_offset=-2 / threads=12 / lookahead_threads=2 / sliced_threads=0 / nr=0 / decimate=1 / interlaced=0 / bluray_compat=0 / constrained_intra=0 / bframes=3 / b_pyramid=2 / b_adapt=2 / b_bias=0 / direct=3 / weightb=1 / open_gop=0 / weightp=2 / keyint=250 / keyint_min=25 / scenecut=40 / intra_refresh=0 / rc_lookahead=50 / rc=crf / mbtree=1 / crf=18.0 / qcomp=0.60 / qpmin=0 / qpmax=69 / qpstep=4 / ip_ratio=1.40 / aq=1:1.00
Language : English
Default : Yes
Forced : No
Matrix coefficients : BT.709

Audio
ID : 2
Format : AC-3
Format/Info : Audio Coding 3
Mode extension : CM (complete main)
Format settings, Endianness : Big
Codec ID : A_AC3
Duration : 45mn 51s
Bit rate mode : Constant
Bit rate : 192 Kbps
Channel(s) : 2 channels
Channel positions : Front: L R
Sampling rate : 48.0 KHz
Bit depth : 16 bits
Compression mode : Lossy
Stream size : 63.0 MiB (8%)
Default : Yes
Forced : No

pb.wtf



Скачать Добыча через торрент http://pic.kartinco.top/images/6/fcrj3.jpg Скачать фильм Добыча через торрент бесплантно в хорошем качестве Описание: Маркус Фэрроу работает полицейским в небольшом городке. В обязанности детектива-констебля входит раскрытие сложных и резонансных ... 9.3 10 4
Торрент: Зарегистрирован [2014-05-20 10:13] · скачан: 99 раз
Статус: √ проверено
Размер: 2.44 GB
Как cкачать? Как скачать Добыча через торрент | qTorrent



Последний раз редактировалось: lug30 (2014-05-20 10:53), всего редактировалось 1 раз

28-11-2019 20:33  

Отключить всю рекламу на сайте

20-05-2014 10:38 Добыча Скачать торрент  

Цитата:

AVO

это обозначение авторского

в данном случае просто

Код:

VO

pb.wtf



20-05-2014 10:48 Добыча Скачать торрент  

Цитата:

Добыча / Жертва / Prey / Сезон: 1 / Серии: 1-3 из 3 (Ник Мерфи) [2014 г., Триллер, криминал, HDTVRip 720p] AVO [R.A.I.M]

Где раздача...???pb.wtf



20-05-2014 10:56 Добыча Скачать торрент  

SHIGANOV писал(а):

Цитата:

Добыча / Жертва / Prey / Сезон: 1 / Серии: 1-3 из 3 (Ник Мерфи) [2014 г., Триллер, криминал, HDTVRip 720p] AVO [R.A.I.M]

Где раздача...???

давно раздаю,от меня независит,сейчас уйду "ведро с гайками делать",комп оставлю включеным,а остальное от меня независитpb.wtf



20-05-2014 11:06 Добыча Скачать торрент  

lug30 писал(а):

SHIGANOV писал(а):

Цитата:

Добыча / Жертва / Prey / Сезон: 1 / Серии: 1-3 из 3 (Ник Мерфи) [2014 г., Триллер, криминал, HDTVRip 720p] AVO [R.A.I.M]

Где раздача...???

давно раздаю,от меня независит,сейчас уйду "ведро с гайками делать",комп оставлю включеным,а остальное от меня независит

Спасибо, раздача пошла...!!!
Поддерживаю раздачу...!!!
Спасибо за реализ...!!!
Надеюсь интересный...!!!pb.wtf



    Дорогой пользователь! Огромная просьба, поблагодарите релизера, оцените раздачу и оставьте свои комментарий, если Вы скачали Добыча через торрент бесплатно! Внесите свою лепту в развитие PiratBit!
    Комментировать посты могут только пользователи прошедшие не сложную регистрацию
    Показать сообщения:    

    Добыча через торрент
    Скачать бесплатно Добыча
    Добыча скачать торрент
    Добыча смотреть онлайн
    Cкачать фильм Добыча бесплатно
    Добыча скачать торрент в хорошем качестве
    Добыча смотреть онлайн бесплатно в хорошем качестве


    Вы не можете начинать темы
    Вы не можете отвечать на сообщения
    Вы не можете редактировать свои сообщения
    Вы не можете удалять свои сообщения
    Вы не можете голосовать в опросах
    Вы не можете прикреплять файлы к сообщениям
    Вы можете скачивать файлы