новый адрес пиратбит piratbit
Мега распродажа FORZA HORIZON 4 ULTIMATE+ВСЕ DLC+ОНЛАЙН всего за 499р. 349 руб. (супер цена). Внимание количество ограничено!!!

iTunes

1+1

iTunes

мы

iTunes

1

iTunes

Чернобыль

iTunes

Ральф против интернета

Лицензия

ПШазам

Лицензия

Игра престолов

Лицензия

30
pack

ВАЖНО

!!Акция!!

Alien_RageХит недели

RePack

Resident Evil 21

ИГРА 18+

pack

RePack

Metro:Exodus

!!Акция!!

Alien_Rage

RePack

fifa19

RePack

Assassins Creed: Odyssey

RePack

NEED FOR SPEED™ PAYBACK

3 сезон

9 сезон

Бесстыжие 9 сезон

Все сериалы

все сериалы на PB.wtf

RePack

FAR CRY 5
Ребята, катастрофически не хватает 1900р. для оплаты серверов за Октябрь (всвязи с блокировками трафик упал в 3 раза), 1-2р., выручайте.
  

Случай в квадрате 36-80 (Михаил Туманишвили) [1982 г., Приключения, Военный, DVDRip] pb.wtf

Случай в квадрате 36-80 через торрент pb.wtf

Размер: 1.09 GB | Добавлен: 5 лет 5 мес. назад | Торрент скачан:86 раз
Скачать  

21-05-2014 17:45 Случай в квадрате 36-80 Скачать торрент  

Случай в квадрате 36-80
Год выпуска: 1982
Страна: СССР
Жанр: Приключения, Военный
Продолжительность: 01:09:28

Режиссер: Михаил Туманишвили
Сценарий: Евгений Месяцев

В ролях: Борис Щербаков, Михай (Михаил) Волонтир, Анатолий Кузнецов, Владимир Седов, Омар Волмер, Паул Буткевич, Витаутас Томкус, Ивар Калныньш, Борис (Боб) Цымба, Ромуальдас Анцанс, Игорь Комаров, Валерий Малышев, Александр Пашутин, Борис Токарев, Евгения Уралова, Михаил Чигарев, Сергей Балабанов, Нина Малахова

Описание: В Северной Атлантике, неподалеку от района, где проводят учения советские корабли Военно-Морского Флота, терпит аварию подводная лодка с вышедшим из строя атомным реактором. Патрульная служба ВМС США пытается сбить советский самолет-спасатель, а тем временем с неуправляемой лодки в сторону советских кораблей уже направляются две крылатые ракеты. Советские моряки, уничтожив смертоносное оружие, топят подводную лодку противника - и ликвидируют возникновение глобального конфликта.

Качество: DVDRip
Формат: AVI
Видео кодек: DivX
Аудио кодек: AC3
Видео: 704x528 (1.33:1), 25 fps, ~2052 kbps avg, bpp 0.221
Аудио#1: 48 kHz, AC3 Dolby Digital, 2/0 (L,R) ch, ~192.00 kbps avg
скриншот   скриншот   скриншот   скриншот   скриншот  
Общее
Полное имя : E:\Фильмы\Rips\Sluchau_v_kvadrate_36-80_DVDRip.avi
Формат : AVI
Формат/Информация : Audio Video Interleave
Размер файла : 1,09 Гбайт
Продолжительность : 1 ч. 9 м.
Общий поток : 2254 Кбит/сек
Программа кодирования : VirtualDubModRus 1.5.10.2 (build 2542/release)
Библиотека кодирования : VirtualDubMod build 2542/release

Видео
Идентификатор : 0
Формат : MPEG-4 Visual
Параметр BVOP формата : 1
Параметр QPel формата : Нет
Параметр GMC формата : Без точки перехода
Параметр матрицы формата : Default (H.263)
Режим смешивания : Сжатый битовый поток
Идентификатор кодека : DX50
Идентификатор кодека/Подсказка : DivX 5
Продолжительность : 1 ч. 9 м.
Битрейт : 2052 Кбит/сек
Ширина : 704 пикселя
Высота : 528 пикселей
Соотношение сторон : 4:3
Частота кадров : 25,000 кадров/сек
Цветовое пространство : YUV
Субдискретизация насыщенности : 4:2:0
Битовая глубина : 8 бит
Тип развёртки : Прогрессивная
Метод сжатия : С потерями
Бит/(Пиксели*Кадры) : 0.221
Размер потока : 1020 Мбайт (91%)
Библиотека кодирования : DivX 6.8.3-6.8.4 (UTC 2008-06-07)

Аудио
Идентификатор : 1
Формат : AC-3
Формат/Информация : Audio Coding 3
Расширение режима : CM (complete main)
Параметр Endianness формата : Big
Идентификатор кодека : 2000
Продолжительность : 1 ч. 9 м.
Вид битрейта : Постоянный
Битрейт : 192 Кбит/сек
Каналы : 2 канала
Расположение каналов : Front: L R
Частота : 48,0 КГц
Битовая глубина : 16 бит
Метод сжатия : С потерями
Размер потока : 95,4 Мбайт (9%)
Выравнивание : Соединение по промежуткам
Продолжительность промежутка : 40 мс. (1,00 видеокадр)
Время предзагрузки промежутка : 512 мс.

pb.wtf



Скачать Случай в квадрате 36-80 через торрент http://pic.kartinco.top/images/6/nc9et.jpg Скачать фильм Случай в квадрате 36-80 через торрент бесплантно в хорошем качестве Описание: В Северной Атлантике, неподалеку от района, где проводят учения советские корабли Военно-Морского Флота, терпит аварию подводная ... 10 10 4
Торрент: Зарегистрирован [2014-05-21 17:45] · скачан: 86 раз
Статус: √ проверено
Размер: 1.09 GB
Как cкачать? Как скачать Случай в квадрате 36-80 через торрент | qTorrent

% Раздел Тема Автор DL S | L
Кино СССР [ 1.47 GB ] Случай в квадрате 36-80 [1982 DVDRip-AVC] smaster Скачать
1 | 0


>> Регистрируемся здесь <<






Отзывы и комментарии о схеме читаем и пишем здесь: ---> Отзывы и комментарии о схеме

Новые благодарочки в телеграм довольных пользователей:
скриншот   скриншот   скриншот   скриншот   скриншот
    Дорогой пользователь! Огромная просьба, поблагодарите релизера, оцените раздачу и оставьте свои комментарий, если Вы скачали Случай в квадрате 36-80 через торрент бесплатно! Внесите свою лепту в развитие PiratBit!
    Комментировать посты могут только пользователи прошедшие не сложную регистрацию
    Показать сообщения:    

    Случай в квадрате 36-80 через торрент
    Скачать бесплатно Случай в квадрате 36-80
    Случай в квадрате 36-80 скачать торрент
    Случай в квадрате 36-80 смотреть онлайн
    Cкачать фильм Случай в квадрате 36-80 бесплатно
    Случай в квадрате 36-80 скачать торрент в хорошем качестве
    Случай в квадрате 36-80 смотреть онлайн бесплатно в хорошем качестве


    Вы не можете начинать темы
    Вы не можете отвечать на сообщения
    Вы не можете редактировать свои сообщения
    Вы не можете удалять свои сообщения
    Вы не можете голосовать в опросах
    Вы не можете прикреплять файлы к сообщениям
    Вы можете скачивать файлы