1 сезон

3 сезон

iTunes

1

iTunes

MVO

iTunes

13

1 сезон

RePack

30

Deluxe

pack

Лицензия

ВАЖНО

ИГРА 18+

pack

RePack

MK11

RePack

jed

RePack

fifa19

RePack

RDR2

RePack

NEED FOR SPEED™ PAYBACK

4 сезон

9 сезон

Бесстыжие 9 сезон

Все сериалы

все сериалы на PB.wtf

RePack

FAR CRY 5

Anonymous, добрый день, мы катастрофически не успеваем собрать деньги на оплату серверов, помогите нам пожалуйста 5,10,15р., для нас важна любая помощь . В качестве благодарности мы отключим Вам всю рекламу на сайте (укажите свой ник в строку Ваше имя)!

×
  
Magnet ссылка

Китайская головоломка / Casse-tête chinois (Седрик Клапиш / Cedric Klapisch) [2013, драма, мелодрама, комедия, DVD9] R5 pb.wtf

Китайская головоломка через торрент pb.wtf

Размер: 6.29 GB | Добавлен: 7 лет 2 мес. назад | Торрент скачан:29 раз
Скачать  

17-05-2014 18:23 Китайская головоломка Скачать торрент  


Китайская головоломка / Casse-tête chinois
Страна: Франция, США, Бельгия
Студия: Belgacom, Ce Qui Me Meut Motion Pictures, Compagnie Cinématographique, La, Opposite Field Pictures, Panache Productions
Жанр: драма, мелодрама, комедия
Год выпуска: 2013
Мировая премьера: 23 августа 2013
Российская премьера: 3 апреля 2014
Дата выхода DVD: 13 мая 2014
Продолжительность: 01:52:34
Перевод: Профессиональный (дублированный) [Лицензия]
Cубтитры: русские
Оригинальная аудиодорожка: французский
Режиссер: Седрик Клапиш / Cedric Klapisch
В ролях: Ромен Дюрис, Одри Тоту, Сесиль Де Франс, Келли Райлли, Сандрин Холт, Флоре Бонавентура, Йохен Хаэгеле, Бенуа Жако, Пабло Мюнье-Жакоб, Марго Мансар...
Описание: Ксавье, покуролесивший в молодости в поисках идеальной женщины, в тридцать с копейками, казалось, успокоился: теперь он женат на англичанке Венди, с которой учился когда-то в барселонском университете, у них двое детей. Но вдруг Венди решила, взяв детей, уехать в Нью-Йорк. Через несколько месяцев и Ксавье последовал за семьей.
Бонусы: Трейлер

Релиз группы:
Качество: DVD9 R5
Формат: DVD-Video
Видео кодек: MPEG2
Аудио кодек: AC3
Видео: PAL 16:9 (720x576(0.647)) MPEG Video, 25,000 кадр/сек, 6712 Кбит/сек
Аудио #1: Russian (Dolby AC3, 6 ch) 384 Кбит/сек, 48,0 КГц
Аудио #2: French (Dolby AC3, 6 ch) 384 Кбит/сек, 48,0 КГц



Title: Kitajskaja.golovolomka.2013.DVD9
Size: 6.29 Gb ( 6 590 558,00 KBytes ) - DVD-9
Enabled regions: 1, 2, 3, 4, 5, 6, 7, 8

VTS_01 :
Play Length: 00:00:10
Video: PAL 16:9 (720x576) VBR, Auto Letterboxed

VTS_02 :
Play Length: 00:00:07
Video: PAL 16:9 (720x576) VBR, Auto Letterboxed
Audio:
English (Dolby AC3, 6 ch)

VTS_03 :
Play Length: 00:01:40
Video: PAL 16:9 (720x576) VBR, Auto Letterboxed
Audio:
Russian (Dolby AC3, 6 ch)
Russian (Dolby AC3, 6 ch)

VTS_04 :
Play Length: 01:52:34
Video: PAL 16:9 (720x576) VBR, Auto Pan&Scan, Auto Letterboxed
Audio:
Russian (Dolby AC3, 6 ch)
Francais (Dolby AC3, 5 ch)
Subtitles:
Russian
Russian

* Menus Information *

VIDEO_TS Menu
Video:
PAL 16:9 (720x576) VBR
Auto Pan&Scan, Auto Letterboxed
English Language Unit :
Title Menu

VTS_01 Menu
Video:
PAL 16:9 (720x576) VBR
Auto Letterboxed
Audio:
Not specified (Dolby AC3, 2 ch)
English Language Unit :
Root Menu

VTS_02 Menu
Video:
PAL 4:3 (720x576) VBR
English Language Unit :
Root Menu

VTS_03 Menu
Video:
PAL 4:3 (720x576) VBR
English Language Unit :
Root Menu

VTS_04 Menu
Video:
PAL 4:3 (720x576) VBR
English Language Unit :
Root Menu
Общее
Полное имя : D:\Новинки 2014\Kitajskaja.golovolomka.2013.DVD9\VIDEO_TS\VTS_04_2.VOB
Формат : MPEG-PS
Размер файла : 1024 Мбайт
Продолжительность : 18 м.
Режим общего битрейта : Переменный
Общий поток : 7632 Кбит/сек

Видео
Идентификатор : 224 (0xE0)
Формат : MPEG Video
Версия формата : Version 2
Профиль формата : Main@Main
Параметр BVOP формата : Да
Параметр матрицы формата : По умолчанию
Параметр GOP формата : M=3, N=12
Продолжительность : 18 м.
Вид битрейта : Переменный
Битрейт : 6712 Кбит/сек
Максимальный битрейт : 8500 Кбит/сек
Ширина : 720 пикселей
Высота : 576 пикселей
Соотношение сторон : 16:9
Частота кадров : 25,000 кадров/сек
Стандарт вещания : PAL
Цветовое пространство : YUV
Субдискретизация насыщенности : 4:2:0
Битовая глубина : 8 бит
Тип развёртки : Прогрессивная
Метод сжатия : С потерями
Бит/(Пиксели*Кадры) : 0.647
Временной код первого кадра : 00:18:52:08
Оригинал временного кода : Group of pictures header
Размер потока : 900 Мбайт (88%)

Аудио #1
Идентификатор : 189 (0xBD)-128 (0x80)
Формат : AC-3
Формат/Информация : Audio Coding 3
Расширение режима : CM (complete main)
Параметр Endianness формата : Big
Режим смешивания : DVD-Video
Продолжительность : 18 м.
Вид битрейта : Постоянный
Битрейт : 384 Кбит/сек
Каналы : 6 каналов
Расположение каналов : Front: L C R, Side: L R, LFE
Частота : 48,0 КГц
Битовая глубина : 16 бит
Метод сжатия : С потерями
Задержка видео : -752 мс.
Размер потока : 51,5 Мбайт (5%)

Аудио #2
Идентификатор : 189 (0xBD)-129 (0x81)
Формат : AC-3
Формат/Информация : Audio Coding 3
Расширение режима : CM (complete main)
Параметр Endianness формата : Big
Режим смешивания : DVD-Video
Продолжительность : 18 м.
Вид битрейта : Постоянный
Битрейт : 384 Кбит/сек
Каналы : 5 каналов
Расположение каналов : Front: L C R, Side: L R
Частота : 48,0 КГц
Битовая глубина : 16 бит
Метод сжатия : С потерями
Задержка видео : -752 мс.
Размер потока : 51,5 Мбайт (5%)

Текст
Идентификатор : 189 (0xBD)-33 (0x21)
Формат : RLE
Формат/Информация : Run-length encoding
Режим смешивания : DVD-Video
Продолжительность : 18 м.
Задержка видео : 680 мс.










pb.wtf



Скачать Китайская головоломка через торрент http://i62.fastpic.ru/big/2014/0517/5c/a962446d6a6d992fb5559f609f7b505c.jpg Скачать фильм Китайская головоломка через торрент бесплантно в хорошем качестве Описание: Ксавье, покуролесивший в молодости в поисках идеальной женщины, в тридцать с копейками, казалось, успокоился: теперь он женат на ... 10 10 1
Info! Золотая раздача, скачанное не засчитывается.
Торрент: Зарегистрирован [2014-05-17 18:23] · скачан: 29 раз
Статус: √ проверено
Размер: 6.29 GB
Как cкачать? Как скачать Китайская головоломка через торрент | UTorrent

28-11-2019 20:33  

Отключить всю рекламу на сайте

    Дорогой пользователь! Огромная просьба, поблагодарите релизера, оцените раздачу и оставьте свои комментарий, если Вы скачали Китайская головоломка через торрент бесплатно! Внесите свою лепту в развитие PiratBit!
    Комментировать посты могут только пользователи прошедшие не сложную регистрацию
    Показать сообщения:    

    Китайская головоломка через торрент
    Скачать бесплатно Китайская головоломка
    Китайская головоломка скачать торрент
    Китайская головоломка смотреть онлайн
    Cкачать фильм Китайская головоломка бесплатно
    Китайская головоломка скачать торрент в хорошем качестве
    Китайская головоломка смотреть онлайн бесплатно в хорошем качестве


    Вы не можете начинать темы
    Вы не можете отвечать на сообщения
    Вы не можете редактировать свои сообщения
    Вы не можете удалять свои сообщения
    Вы не можете голосовать в опросах
    Вы не можете прикреплять файлы к сообщениям
    Вы можете скачивать файлы