Ссылка на приватное зеркало нашего сайта всего за 1$. Внимание количество ограничено!!!

2 сезон

iTunes

1 сезон

1

2 сезон

2 сезон

iTunes

1 сезон

RePack

30

Новинка

ВАЖНО

ИГРА 18+

pack

RePack

MK11
pack

Забери бонус

RePack

jed

!!Акция!!

Alien_Rage

RePack

fifa19

RePack

Assassins Creed: Odyssey

RePack

NEED FOR SPEED™ PAYBACK

4 сезон

9 сезон

Бесстыжие 9 сезон

Все сериалы

все сериалы на PB.wtf

RePack

FAR CRY 5
  

От заката до рассвета / From Dusk Till Dawn (Роберт Родригес) [1996 г., Боевик, криминал, ужасы, BD-Remux, Профессиональный многоголосый] pb.wtf

От заката до рассвета через торрент pb.wtf

Размер: 25.1 GB | Добавлен: 6 лет 6 мес. назад | Торрент скачан:2 раза
Скачать  

22-05-2014 11:47 От заката до рассвета Скачать торрент  

От заката до рассвета / From Dusk Till Dawn
Год выпуска: 1996
Страна: США
Жанр: Боевик, криминал, ужасы
Продолжительность: 01:47:50
Перевод: Профессиональный многоголосый+(одноголосый, Goblin aka Д.Ю.Пучков)+
(многоголосый, Премьер Фильм)+(одноголосый, Ю.Живов)+(одноголосый, А.Гаврилов)+
Оригинал
Субтитры: русские,английские, украинские

Режиссер: Роберт Родригес

В ролях: Харви Кейтель, Джордж Клуни, Квентин Тарантино, Джульетт Льюис, Эрнест Лью, Сальма Хайек, Чич Марин, Дэнни Трехо, Том Савини, Фред Уильямсон

Описание: Два отпетых негодяя, неоднократно судимые братья Гекко (в исполнении Джорджа Клуни и Квентина Тарантино), бегут от американского правосудия в Мексику. Для того, чтобы пересечь границу, отмороженные братья берут в заложники семью священника: его самого и двоих его детей. И вот в Мексике братья останавливаются на ночь в местном очаге беспредела и разврата, в баре “Крученая сиська”…

Качество: BD-Remux
Формат: MKV
Видео кодек: H.264
Аудио кодек: AC3-DTS
Видео: MPEG-4 AVC, (1920x1080),24000 Кбит/с, 23.976 кадра/сек
Аудио#1: DTS-6 ch, 1509 kbps (Rus) 48.0 KHz (одноголосый, Goblin aka Д.Ю.Пучков)
Аудио#2: AC-3 6 ch,384 kbps (Rus) 48.0 KHz (многоголосый, закадровый)
Аудио#3: AC-3 6 ch,384 kbps (Rus) 48.0 KHz (многоголосый, Премьер Фильм)
Аудио#4: DTS-6 ch, 1509 kbps (Rus) 48.0 KHz (одноголосый, Ю.Живов)
Аудио#5: DTS-6 ch, 768kbps (Rus) 48.0 KHz (одноголосый, А.Гаврилов)
Аудио#6: DTS-6 ch, 1509 kbps (Eng) 48.0 KHz (Оригинал)
скриншот   скриншот   скриншот  

Тип потока: Видео
Длительность: 01:47:59
Кодек: AVC
Кодек/описание: Advanced Video Codec
Кодек/профиль: High@L4.1
Кодек/ID: V_MPEG4/ISO/AVC
Кодек/CABAC: Yes
Кодек/ReFrames: 4 frames
Размеры изображения: 1920 x 1080 (16:9)
Частота кадров: 23.976 fps
Частота кадров/тип: Constant
Битрейт/тип: CBR
Стандарт: NTSC
Цветовое пространство: YUV
Тип развёртки: Progressive
Колориметрия: 4:2:0
Глубина: 8 bits
:
Тип потока: Звук #1
Язык: Russian
Название: DTS 5.1, 1536 kbps (одноголосый, Goblin aka Д.Ю.Пучков)
Длительность: 01:47:59.424
Кодек: DTS
Кодек/описание: Digital Theater Systems
Кодек/ID: A_DTS
Частота дискретизации: 48.0 KHz
Каналов: 6 channels
Битрейт: 1 510 Kbps
Битрейт/тип: Constant
Размер потока: 1.14 GiB (5%)
Глубина: 24 bits
Метод сжатия: Lossy
:
Тип потока: Звук #2
Язык: Russian
Название: AC3 5.1, 384 kbps (многоголосый, закадровый)
Длительность: 01:47:59.424
Кодек: AC-3
Кодек/описание: Audio Coding 3
Кодек/ID: A_AC3
Частота дискретизации: 48.0 KHz
Каналов: 6 channels
Битрейт: 384 Kbps
Битрейт/тип: Constant
Размер потока: 297 MiB (1%)
Глубина: 16 bits
Метод сжатия: Lossy
:
Тип потока: Звук #3
Язык: Russian
Название: AC3 5.1, 384 kbps (многоголосый, Премьер Фильм)
Длительность: 01:47:59.424
Кодек: AC-3
Кодек/описание: Audio Coding 3
Кодек/ID: A_AC3
Частота дискретизации: 48.0 KHz
Каналов: 6 channels
Битрейт: 384 Kbps
Битрейт/тип: Constant
Размер потока: 297 MiB (1%)
Глубина: 16 bits
Метод сжатия: Lossy
:
Тип потока: Звук #4
Язык: Russian
Название: DTS 5.1, 1536 kbps (одноголосый, Ю.Живов)
Длительность: 01:47:59.424
Кодек: DTS
Кодек/описание: Digital Theater Systems
Кодек/ID: A_DTS
Частота дискретизации: 48.0 KHz
Каналов: 6 channels
Битрейт: 1 510 Kbps
Битрейт/тип: Constant
Размер потока: 1.14 GiB (5%)
Глубина: 24 bits
Метод сжатия: Lossy
:
Тип потока: Звук #5
Язык: Russian
Название: DTS 5.1, 768 kbps (одноголосый, А.Гаврилов)
Длительность: 01:47:59.424
Кодек: DTS
Кодек/описание: Digital Theater Systems
Кодек/ID: A_DTS
Частота дискретизации: 48.0 KHz
Каналов: 6 channels
Битрейт: 755 Kbps
Битрейт/тип: Constant
Размер потока: 583 MiB (2%)
Глубина: 24 bits
Метод сжатия: Lossy
:
Тип потока: Звук #6
Язык: English
Название: DTS-HD MA 5.1, 4332 kbps
Длительность: 01:47:59.424
Кодек: DTS
Кодек/описание: Digital Theater Systems
Кодек/профиль: MA / Core
Кодек/ID: A_DTS
Частота дискретизации: 48.0 KHz
Каналов: 6 channels
Битрейт: Unknown / 1 509 Kbps
Битрейт/тип: Variable
Глубина: 24 bits
Метод сжатия: Lossless / Lossy
:
Тип потока: Субтитры #1
Язык: Russian
Формат: UTF-8
Формат/подробно: UTF-8 Plain Text
Название: Goblin
:
Тип потока: Субтитры #2
Язык: Russian
Формат: UTF-8
Формат/подробно: UTF-8 Plain Text
:
Тип потока: Субтитры #3
Язык: Ukrainian
Формат: UTF-8
Формат/подробно: UTF-8 Plain Text
:
Тип потока: Субтитры #4
Язык: English
Формат: UTF-8
Формат/подробно: UTF-8 Plain Text

pb.wtf



Скачать От заката до рассвета через торрент http://pic.kartinco.top/images/6/4wqc7.jpg Скачать фильм От заката до рассвета через торрент бесплантно в хорошем качестве Описание: Два отпетых негодяя, неоднократно судимые братья Гекко (в исполнении Джорджа Клуни и Квентина Тарантино), бегут от американского ... 10 10 10
Info! Золотая раздача, скачанное не засчитывается.
Торрент: Зарегистрирован [2014-05-22 11:47] · скачан: 2 раз
Статус: √ проверено
Размер: 25.1 GB
Как cкачать? Как скачать От заката до рассвета через торрент | qTorrent

% Раздел Тема Автор DL S | L
Фильмы до 2000 г. [ 2.21 GB ] От заката до рассвета / From Dusk Till Dawn [1996 DVDRip] + [AVO] killermax2013 Скачать
2 | 0
Фильмы [HD 720p, 1080p] (Хороший звук DUB, MVO) [ 15.21 GB ] От заката до рассвета / From Dusk Till Dawn [1996 BDRip-HEVC 1080p ] [ITA Transfer] 3xMVO +[4xMVO+DUB ] +4xAVO bober100 Скачать
1 | 0
Фильмы до 2000 г. [ 1.45 GB ] От заката до рассвета / From Dusk Till Dawn [1996 DVDRip] [Fullscreen] [DVO] killermax2013 Скачать
1 | 0
Зарубежные сериалы [ 4.22 GB ] От заката до рассвета / From Dusk Till Dawn: The Series / 3 сезон / 10 серий из 10 [2016 HDTVRip/WEBRip] MVO [ColdFilm] bober100 Скачать
1 | 0
T Релизы по Парсеру [Игры, Сериалы и Фильмы и другое...] [ 11.85 GB ] От заката до рассвета / From Dusk Till Dawn / Сезон: 3 / Серии: 1-8 из 10 [2016 WEB-DL 720p от qqss44] NewStudio qqss44 (он и не он) Скачать
1 | 0
T Релизы по Парсеру [Игры, Сериалы и Фильмы и другое...] [ 4.3 GB ] От заката до рассвета / From Dusk Till Dawn / Сезон: 3 / Серии: 1-8 из 10 [2016 WEB-DLRip от qqss44] NewStudio qqss44 (он и не он) Скачать
1 | 0
Зарубежные сериалы [ 8.18 GB ] От заката до рассвета / From Dusk Till Dawn: The Series / Сезон: 3 / Серии 1-10 из 10 [2016 WEB-DLRip-AVC] MVO [NewStudio] GEKADOL Скачать
1 | 0

28-11-2019 20:33  

Отключить всю рекламу на сайте

22-05-2014 12:47 От заката до рассвета Скачать торрент  

    Дорогой пользователь! Огромная просьба, поблагодарите релизера, оцените раздачу и оставьте свои комментарий, если Вы скачали От заката до рассвета через торрент бесплатно! Внесите свою лепту в развитие PiratBit!
    Комментировать посты могут только пользователи прошедшие не сложную регистрацию
    Показать сообщения:    

    От заката до рассвета через торрент
    Скачать бесплатно От заката до рассвета
    От заката до рассвета скачать торрент
    От заката до рассвета смотреть онлайн
    Cкачать фильм От заката до рассвета бесплатно
    От заката до рассвета скачать торрент в хорошем качестве
    От заката до рассвета смотреть онлайн бесплатно в хорошем качестве


    Вы не можете начинать темы
    Вы не можете отвечать на сообщения
    Вы не можете редактировать свои сообщения
    Вы не можете удалять свои сообщения
    Вы не можете голосовать в опросах
    Вы не можете прикреплять файлы к сообщениям
    Вы можете скачивать файлы