Ссылка на приватное зеркало нашего сайта всего за 1$. Внимание количество ограничено!!!

2 сезон

iTunes

1 сезон

1

2 сезон

2 сезон

iTunes

1 сезон

RePack

30

Ultimate

ВАЖНО

ИГРА 18+

pack

RePack

MK11
pack

Забери бонус

RePack

jed

!!Акция!!

Alien_Rage

RePack

fifa19

RePack

Assassins Creed: Odyssey

RePack

NEED FOR SPEED™ PAYBACK

4 сезон

9 сезон

Бесстыжие 9 сезон

Все сериалы

все сериалы на PB.wtf

RePack

FAR CRY 5
  

Мачете убивает / Machete Kills (Роберт Родригес / Robert Rodriguez) [2013, боевик, комедия, BD-Remux, USA Transfer, Дублированный, Лицензия] pb.wtf

Мачете убивает через торрент pb.wtf

Размер: 23.29 GB | Добавлен: 6 лет 6 мес. назад | Торрент скачан:13 раз
Скачать  

23-05-2014 14:54 Мачете убивает Скачать торрент  

Мачете убивает / Machete Kills
«Наученный убивать. Брошенный умирать. Вернулся спасти мир»



Год выпуска: 2013
Страна: Россия, США
Жанр: боевик, комедия
Продолжительность: 01:47:32
Перевод: Дублированный [Лицензия]
Субтитры: Английские (PGS)


Режиссер:
  • Роберт Родригес / Robert Rodriguez
В ролях:
  • Дэнни Трехо (Machete), Мишель Родригес (Luz), Эмбер Хёрд (Miss San Antonio), Демиан Бишир (Mendez), Мэл Гибсон (Voz), София Вергара (Desdemona), Чарли Шин (Mr. President), Леди Гага (La Camaleón), Алекса ПенаВега (KillJoy), Антонио Бандерас (El Camaleón 4), Кьюба Гудинг мл. (El Camaleón 2), Джессика Альба (Sartana, в титрах не указана)
Описание: Правительство США вербует Мачете для миссии, которую не под силу выполнить простому смертному. Мачете прорывается в Мексику, чтобы схватить безумного лидера карательного отряда и эксцентричного миллиардера, торгующего оружием, который, в свою очередь, лелеет мечту начать войну планетарного масштаба и запустить смертельно опасное оружие в космос. И только Мачете может предотвратить этот глобальный хаос.


Качество: BD-Remux [USA Transfer]
Формат: MKV
Видео кодек: AVC
Аудио кодек: AC3
Видео: AVC, 1920x1080 (16:9), 29109 kbps, 23,976 fps, 0,586 bpp
Аудио №1: русский / AC3 / 5.1 / 48 kHz / 640 kbps / 16 bit
Аудио №2: английский / AC3 / 5.1 / 48 kHz / 640 kbps / 16 bit


Код:

General
Unique ID                                : 195973424525614910276564347558767872222 (0x936F1BD120ECADAF9CC35F2F1CC7C8DE)
Complete name                            : I:\Мачете убивает (2013) [USA Transfer] BD-Remux.mkv
Format                                   : Matroska
Format version                           : Version 4 / Version 2
File size                                : 23.3 GiB
Duration                                 : 1h 47mn
Overall bit rate mode                    : Variable
Overall bit rate                         : 31.0 Mbps
Encoded date                             : UTC 2014-05-23 10:20:54
Writing application                      : mkvmerge v6.6.0 ('The Edge Of The In Between') built on Dec  1 2013 17:55:00
Writing library                          : libebml v1.3.0 + libmatroska v1.4.1
Attachment                               : Yes

Video
ID                                       : 1
Format                                   : AVC
Format/Info                              : Advanced Video Codec
Format profile                           : High@L4.1
Format settings, CABAC                   : Yes
Format settings, ReFrames                : 4 frames
Codec ID                                 : V_MPEG4/ISO/AVC
Duration                                 : 1h 47mn
Bit rate mode                            : Variable
Bit rate                                 : 29.1 Mbps
Maximum bit rate                         : 33.0 Mbps
Width                                    : 1 920 pixels
Height                                   : 1 080 pixels
Display aspect ratio                     : 16:9
Frame rate                               : 23.976 fps
Color space                              : YUV
Chroma subsampling                       : 4:2:0
Bit depth                                : 8 bits
Scan type                                : Progressive
Bits/(Pixel*Frame)                       : 0.586
Stream size                              : 21.9 GiB (94%)
Language                                 : English
Default                                  : Yes
Forced                                   : No

Audio #1
ID                                       : 2
Format                                   : AC-3
Format/Info                              : Audio Coding 3
Mode extension                           : CM (complete main)
Codec ID                                 : A_AC3
Duration                                 : 1h 47mn
Bit rate mode                            : Constant
Bit rate                                 : 640 Kbps
Channel(s)                               : 6 channels
Channel positions                        : Front: L C R, Side: L R, LFE
Sampling rate                            : 48.0 KHz
Bit depth                                : 16 bits
Compression mode                         : Lossy
Stream size                              : 492 MiB (2%)
Language                                 : Russian
Default                                  : Yes
Forced                                   : No

Audio #2
ID                                       : 3
Format                                   : AC-3
Format/Info                              : Audio Coding 3
Mode extension                           : CM (complete main)
Codec ID                                 : A_AC3
Duration                                 : 1h 47mn
Bit rate mode                            : Constant
Bit rate                                 : 640 Kbps
Channel(s)                               : 6 channels
Channel positions                        : Front: L C R, Side: L R, LFE
Sampling rate                            : 48.0 KHz
Bit depth                                : 16 bits
Compression mode                         : Lossy
Stream size                              : 492 MiB (2%)
Language                                 : English
Default                                  : No
Forced                                   : No

Text
ID                                       : 4
Format                                   : PGS
Muxing mode                              : zlib
Codec ID                                 : S_HDMV/PGS
Codec ID/Info                            : The same subtitle format used on BDs/HD-DVDs
Language                                 : English
Default                                  : No
Forced                                   : No

Menu
00:00:00.000                             : en:00:00:00.000
00:10:09.776                             : en:00:10:09.776
00:19:04.685                             : en:00:19:04.685
00:25:02.501                             : en:00:25:02.501
00:36:34.359                             : en:00:36:34.359
00:45:12.209                             : en:00:45:12.209
00:52:01.327                             : en:00:52:01.327
00:58:06.900                             : en:00:58:06.900
01:01:45.243                             : en:01:01:45.243
01:11:34.040                             : en:01:11:34.040
01:20:11.640                             : en:01:20:11.640
01:26:57.462                             : en:01:26:57.462

скриншот   скриншот   скриншот   скриншот   pb.wtf



Скачать Мачете убивает через торрент http://i63.fastpic.ru/big/2014/0523/95/a590accd4aac4f78aee5e9eee6aa4895.png Скачать фильм Мачете убивает через торрент бесплантно в хорошем качестве Описание: Правительство США вербует Мачете для миссии, которую не под силу выполнить простому смертному. Мачете прорывается в Мексику, ... 7.8 10 4
Info! Золотая раздача, скачанное не засчитывается.
Торрент: Зарегистрирован [2014-05-23 14:54] · скачан: 13 раз
Статус: √ проверено
Размер: 23.29 GB
Как cкачать? Как скачать Мачете убивает через торрент | qTorrent

% Раздел Тема Автор DL S | L
Фильмы [HD 720p, 1080p] (Хороший звук DUB, MVO) [ 5.75 GB ] Мачете убивает / Machete Kills [2013 BDRip-HEVC 1080p] DUB + AVO | US Transfer RealOldGamer Скачать
2 | 0
Фильмы с авторской озвучкой [ 2.19 GB ] Мачете убивает / Machete Kills [2013 HDRip] 2x[AVO] killermax2013 Скачать
2 | 0
Фильмы (Blu-ray, BD-Remux, HDDVD) [ 32.25 GB ] Мачете убивает / Machete Kills [2013 Россия BDRemux 1080p] [US Transfer] Dub + VO + Original + Subs Ворон Скачать
1 | 0
Фильмы 2013 [DVDrip, WEB-DLRip, HDrip] [ 1.37 GB ] Мачете убивает / Machete Kills [ 2013 Россия HDRip ] МАКС1 Скачать
1 | 0
Фильмы 2013 [DVDrip, WEB-DLRip, HDrip] [ 2.26 GB ] Мачете убивает / Machete Kills [2013 BDRip-AVC] [US-Transfer] Dub + Original + Sub potroks Скачать
1 | 0
Фильмы (Blu-ray, BD-Remux, HDDVD) [ 22.62 GB ] Мачете убивает / Machete Kills [2013 Blu-ray ] Pavlin Скачать
1 | 0
Фильмы 2013 [DVDrip, WEB-DLRip, HDrip] [ 2.05 GB ] Мачете убивает / Machete Kills [ 2013 Россия HDRip. ] МАКС1 Скачать
1 | 0


Последний раз редактировалось: Seedtank (2014-05-23 15:04), всего редактировалось 1 раз

28-11-2019 20:33  

Отключить всю рекламу на сайте

23-05-2014 14:55 Мачете убивает Скачать торрент  

*Seedtank Edition
Релиз для настоящих коллекционеров.
Вшита обложка, перекодирован кодек в АС3 для воспроизводимости на любых медиаплеерах.
pb.wtf



    Дорогой пользователь! Огромная просьба, поблагодарите релизера, оцените раздачу и оставьте свои комментарий, если Вы скачали Мачете убивает через торрент бесплатно! Внесите свою лепту в развитие PiratBit!
    Комментировать посты могут только пользователи прошедшие не сложную регистрацию
    Показать сообщения:    

    Мачете убивает через торрент
    Скачать бесплатно Мачете убивает
    Мачете убивает скачать торрент
    Мачете убивает смотреть онлайн
    Cкачать фильм Мачете убивает бесплатно
    Мачете убивает скачать торрент в хорошем качестве
    Мачете убивает смотреть онлайн бесплатно в хорошем качестве


    Вы не можете начинать темы
    Вы не можете отвечать на сообщения
    Вы не можете редактировать свои сообщения
    Вы не можете удалять свои сообщения
    Вы не можете голосовать в опросах
    Вы не можете прикреплять файлы к сообщениям
    Вы можете скачивать файлы