Ссылка на приватное зеркало всего за 1$. Внимание количество ограничено!!!

iTunes

iTunes

iTunes

1

iTunes

iTunes

iTunes

iTunes

iTunes

30
pack

$ от Little Big

ВАЖНО

!!Акция!!

Alien_RageХит недели

RePack

Resident Evil 21

ИГРА 18+

pack

RePack

jed

!!Акция!!

Alien_Rage

RePack

fifa19

RePack

Assassins Creed: Odyssey

RePack

NEED FOR SPEED™ PAYBACK

4 сезон

9 сезон

Бесстыжие 9 сезон

Все сериалы

все сериалы на PB.wtf

RePack

FAR CRY 5
  

Открытый перелом / Compound Fracture (Энтони Дж. Рикерт-Эпстин / Anthony J. Rickert-Epstein) [ 2013 , США , ужасы, триллер , WEB-DL720p(AVC) ] DVO [DeadSno & den904] pb.wtf

Открытый перелом через торрент pb.wtf

Размер: 2.71 GB | Добавлен: 6 лет 1 мес. назад | Торрент скачан:100 раз
Скачать  

24-05-2014 06:11 Открытый перелом Скачать торрент  

Открытый перелом / Compound FractureГод выпуска: 2013
Страна: США
Жанр: ужасы, триллер
Продолжительность: 01:30:59
Перевод: Любительский (двухголосый)[DeadSno & den904]
Субтитры:Нет
Режиссер: Энтони Дж. Рикерт-Эпстин / Anthony J. Rickert-Epstein
Сценарий: Рене Гирлингс / Renae Geerlings, Тайлер Мэйн / Tyler Mane
Продюсер: Рене Гирлингс / Renae Geerlings, Тайлер Мэйн / Tyler Mane, Энтони Дж. Рикерт-Эпстин / Anthony J. Rickert-Epstein, John Saunders, Robert Ziglar
Оператор: Энтони Дж. Рикерт-Эпстин / Anthony J. Rickert-Epstein
Композитор: Джоэл Дж. Ричард / Joel J. Richard
В ролях:
Тайлер Мэйн (Michael), Мьюз Уотсон (Gary), Дерек Мирс (William), Лесли Истербрук (Annabelle), Рене Гирлингс (Juliette), Алекс Саксон (Brandon), Сьюзэн Анджело (Chloe), Джелли Хоуи (Christine), Дэниэл Робак (Jim), Тодд Фармер (Jack)
Мировая премьера: 13 мая 2014
Описание:
Сюжет фильма о том, как на глазах у своего сына отец убивает мать. Паренька берет в опеку родной дядя с женой и они вместе уезжают жить к дедушке, пытаясь наладить новый быт. Но все не так просто дедушка не совсем вменяем и здесь же появляется призрак его брата убийцы. Призрак хочет уничтожить всех членов семьи.
Качество: WEB-DL720p(AVC)
Формат: MKV
Видео кодек: AVC
Аудио кодек: AC3
Видео: 3606 Кбит/сек (3800 Кбит/сек), 1280*532 (2,40:1), в 23,976 кадра/сек, AVC
Аудио №1: Русский 192 Кбит/сек, 48,0 КГц, 16 бит, 2 канала, AC-3
Аудио №2: Английский 384 Кбит/сек, 48,0 КГц, 16 бит, 6 каналов, AC-3
Общее
Уникальный идентификатор : 221859578467245658513615433029077026188 (0xA6E899BE6D0CC5C88B933E75BCD1C58C)
Полное имя : H:\ТОРРЕНТЫ\Открытый перелом.mkv
Формат : Matroska
Версия формата : Version 4 / Version 2
Размер файла : 2,71 Гбайт
Продолжительность : 1 ч. 30 м.
Общий поток : 4267 Кбит/сек
Дата кодирования : UTC 2014-05-24 04:53:13
Программа кодирования : mkvmerge v6.1.0 ('Old Devil') built on Mar 4 2013 09:10:42
Библиотека кодирования : libebml v1.3.0 + libmatroska v1.4.0

Видео
Идентификатор : 1
Формат : AVC
Формат/Информация : Advanced Video Codec
Профиль формата : High@L4.0
Параметр CABAC формата : Да
Параметр ReFrames формата : 4 кадра
Идентификатор кодека : V_MPEG4/ISO/AVC
Продолжительность : 1 ч. 30 м.
Битрейт : 3606 Кбит/сек
Номинальный битрейт : 3800 Кбит/сек
Ширина : 1280 пикселей
Высота : 532 пикселя
Соотношение сторон : 2,40:1
Режим частоты кадров : Постоянный
Частота кадров : 23,976 кадра/сек
Цветовое пространство : YUV
Субдискретизация насыщенности : 4:2:0
Битовая глубина : 8 бит
Тип развёртки : Прогрессивная
Бит/(Пиксели*Кадры) : 0.221
Размер потока : 2,29 Гбайт (85%)
Библиотека кодирования : x264 core 130 r2273 b3065e6
Настройки программы : cabac=1 / ref=4 / deblock=1:0:0 / analyse=0x3:0x113 / me=umh / subme=8 / psy=1 / psy_rd=1.00:0.00 / mixed_ref=1 / me_range=16 / chroma_me=1 / trellis=1 / 8x8dct=1 / cqm=0 / deadzone=21,11 / fast_pskip=1 / chroma_qp_offset=-2 / threads=12 / lookahead_threads=2 / sliced_threads=0 / nr=0 / decimate=1 / interlaced=0 / bluray_compat=0 / constrained_intra=0 / bframes=3 / b_pyramid=2 / b_adapt=2 / b_bias=0 / direct=3 / weightb=1 / open_gop=0 / weightp=2 / keyint=240 / keyint_min=24 / scenecut=40 / intra_refresh=0 / rc_lookahead=50 / rc=abr / mbtree=1 / bitrate=3800 / ratetol=1.0 / qcomp=0.60 / qpmin=0 / qpmax=69 / qpstep=4 / vbv_maxrate=25000 / vbv_bufsize=31250 / nal_hrd=none / ip_ratio=1.40 / aq=1:1.00
Язык : English
Default : Да
Forced : Нет
Основные цвета : BT.709
Характеристики трансфера : BT.709
Коэффициенты матрицы : BT.709

Аудио #1
Идентификатор : 2
Формат : AC-3
Формат/Информация : Audio Coding 3
Расширение режима : CM (complete main)
Параметр Endianness формата : Big
Идентификатор кодека : A_AC3
Продолжительность : 1 ч. 30 м.
Вид битрейта : Постоянный
Битрейт : 192 Кбит/сек
Каналы : 2 канала
Расположение каналов : Front: L R
Частота : 48,0 КГц
Битовая глубина : 16 бит
Метод сжатия : С потерями
Размер потока : 125 Мбайт (4%)
Язык : Russian
Default : Да
Forced : Нет

Аудио #2
Идентификатор : 3
Формат : AC-3
Формат/Информация : Audio Coding 3
Расширение режима : CM (complete main)
Параметр Endianness формата : Big
Идентификатор кодека : A_AC3
Продолжительность : 1 ч. 30 м.
Вид битрейта : Постоянный
Битрейт : 384 Кбит/сек
Каналы : 6 каналов
Расположение каналов : Front: L C R, Side: L R, LFE
Частота : 48,0 КГц
Битовая глубина : 16 бит
Метод сжатия : С потерями
Размер потока : 250 Мбайт (9%)
Язык : English
Default : Нет
Forced : Нет

Меню
00:00:00.000 : en:Chapter 1
00:06:21.005 : en:Chapter 2
00:12:13.023 : en:Chapter 3
00:16:24.066 : en:Chapter 4
00:23:22.067 : en:Chapter 5
00:27:54.047 : en:Chapter 6
00:34:00.038 : en:Chapter 7
00:42:10.027 : en:Chapter 8
00:45:38.026 : en:Chapter 9
00:51:20.035 : en:Chapter 10
00:58:40.058 : en:Chapter 11
01:02:50.016 : en:Chapter 12
01:07:45.019 : en:Chapter 13
01:13:11.053 : en:Chapter 14
01:17:44.076 : en:Chapter 15
01:25:25.036 : en:Chapter 16

скриншот   скриншот   скриншот   скриншот   скриншот   скриншот   скриншот   скриншот   скриншот   скриншот  

pb.wtf



Скачать Открытый перелом через торрент http://pic.kartinco.top/images/6/dseo5.jpg Скачать фильм Открытый перелом через торрент бесплантно в хорошем качестве Описание:Сюжет фильма о том, как на глазах у своего сына отец убивает мать. Паренька берет в опеку родной дядя с женой и они вместе уезжают ... 7.8 10 4
Торрент: Зарегистрирован [2014-05-24 06:11] · скачан: 100 раз
Статус: T временная
Размер: 2.71 GB
Как cкачать? Как скачать Открытый перелом через торрент | qTorrent

28-11-2019 20:33  

Отключить всю рекламу на сайте

    Дорогой пользователь! Огромная просьба, поблагодарите релизера, оцените раздачу и оставьте свои комментарий, если Вы скачали Открытый перелом через торрент бесплатно! Внесите свою лепту в развитие PiratBit!
    Комментировать посты могут только пользователи прошедшие не сложную регистрацию
    Показать сообщения:    

    Открытый перелом через торрент
    Скачать бесплатно Открытый перелом
    Открытый перелом скачать торрент
    Открытый перелом смотреть онлайн
    Cкачать фильм Открытый перелом бесплатно
    Открытый перелом скачать торрент в хорошем качестве
    Открытый перелом смотреть онлайн бесплатно в хорошем качестве


    Вы не можете начинать темы
    Вы не можете отвечать на сообщения
    Вы не можете редактировать свои сообщения
    Вы не можете удалять свои сообщения
    Вы не можете голосовать в опросах
    Вы не можете прикреплять файлы к сообщениям
    Вы можете скачивать файлы