новый адрес
Ссылка на приватное зеркало всего за 1$. Внимание количество ограничено!!!

iTunes

1+1

iTunes

мы

WEB-DL

1

iTunes

Чернобыль

iTunes

Ральф против интернета

Лицензия

ПШазам

Лицензия

Оно 2

Лицензия

30
pack

Вам бонус

ВАЖНО

!!Акция!!

Alien_RageХит недели

RePack

Resident Evil 21

ИГРА 18+

pack

RePack

jed

!!Акция!!

Alien_Rage

RePack

fifa19

RePack

Assassins Creed: Odyssey

RePack

NEED FOR SPEED™ PAYBACK

3 сезон

9 сезон

Бесстыжие 9 сезон

Все сериалы

все сериалы на PB.wtf

RePack

FAR CRY 5
Ребята, катастрофически не хватает 1900р. для оплаты серверов за Октябрь (всвязи с блокировками трафик упал в 3 раза), 1-2р., выручайте.
  

Конгресс / The Congress (Ари Фольман) [2013 г., фантастика, мультфильм, драма, HDRip, Профессиональный многоголосый закадровый] pb.wtf

Конгресс через торрент pb.wtf

Размер: 2.18 GB | Добавлен: 5 лет 6 мес. назад | Торрент скачан:361 раз
Скачать  

24-05-2014 09:34 Конгресс Скачать торрент  

Конгресс / The Congress
Год выпуска: 2013
Страна: Израиль, Германия, Польша,Люксенбург,Франция,Бельгия / Bridgit Folman Film Gang, Pandora Filmproduktion, Opus Film
Жанр: фантастика, мультфильм, драма
Продолжительность: 02:02:54.
Перевод: Профессиональный многоголосый закадровый (Фирма "Позитив" по заказу т/к "Русский репортаж")

Режиссер: Ари Фольман

В ролях: Робин Райт, Харви Кейтель, Джон Хэмм, Пол Джаматти, Коди Смит-МакФи, Дэнни Хьюстон, Сами Гэйл, Майкл Сталь-Дэвид, Майкл Лэндис, Сара Шахи

Описание: Стареющая безработная актриса соглашается на последнюю работу, не представляя себе последствий, которые повлечет за собой это решение…

Качество: HDRip
Формат: AVI
Видео кодек: XviD
Аудио кодек: AC3
Видео: 720x384 (1.88:1), 23.976 fps, XviD build 50 ~2339 kbps avg, 0.35 bit/pixel
Аудио: 48 kHz, AC3 Dolby Digital, 2/0 (L,R) ch, ~192 kbps

скриншот   скриншот   скриншот   скриншот   скриншот  

Общее
Полное имя : H:\кино\The.Congress.2013.HDRip.avi
Формат : AVI
Формат/Информация : Audio Video Interleave
Профиль формата : OpenDML
Размер файла : 2,18 Гбайт
Продолжительность : 2 ч. 2 м.
Общий поток : 2539 Кбит/сек
Программа кодирования : VirtualDubMod 1.5.10.3 | www.virtualdub-fr.org || (build 2550/release)
Библиотека кодирования : VirtualDubMod build 2550/release

Видео
Идентификатор : 0
Формат : MPEG-4 Visual
Профиль формата : Advanced Simple@L5
Параметр BVOP формата : 2
Параметр QPel формата : Нет
Параметр GMC формата : Без точки перехода
Параметр матрицы формата : Default (H.263)
Идентификатор кодека : XVID
Идентификатор кодека/Подсказка : XviD
Продолжительность : 2 ч. 2 м.
Битрейт : 2335 Кбит/сек
Ширина : 720 пикселей
Высота : 384 пикселя
Соотношение сторон : 1,85:1
Частота кадров : 23,976 кадра/сек
Цветовое пространство : YUV
Субдискретизация насыщенности : 4:2:0
Битовая глубина : 8 бит
Тип развёртки : Прогрессивная
Метод сжатия : С потерями
Бит/(Пиксели*Кадры) : 0.352
Размер потока : 2,00 Гбайт (92%)
Библиотека кодирования : XviD 1.2.1 (UTC 2008-12-04)

Аудио
Идентификатор : 1
Формат : AC-3
Формат/Информация : Audio Coding 3
Расширение режима : CM (complete main)
Параметр Endianness формата : Big
Идентификатор кодека : 2000
Продолжительность : 2 ч. 2 м.
Вид битрейта : Постоянный
Битрейт : 192 Кбит/сек
Каналы : 2 канала
Расположение каналов : Front: L R
Частота : 48,0 КГц
Битовая глубина : 16 бит
Метод сжатия : С потерями
Размер потока : 169 Мбайт (8%)
Выравнивание : Разделение по промежуткам
Продолжительность промежутка : 42 мс. (1,00 видеокадр)
Время предзагрузки промежутка : 500 мс.

pb.wtf



Скачать Конгресс через торрент http://pic.kartinco.top/images/6/6az5h.jpg Скачать фильм Конгресс через торрент бесплантно в хорошем качестве Описание: Стареющая безработная актриса соглашается на последнюю работу, не представляя себе последствий, которые повлечет за собой это ... 9.5 10 14
Info! Золотая раздача, скачанное не засчитывается.
Торрент: Зарегистрирован [2014-05-24 09:34] · скачан: 361 раз
Статус: √ проверено
Размер: 2.18 GB
Как cкачать? Как скачать Конгресс через торрент | qTorrent

% Раздел Тема Автор DL S | L
Иностранные мультфильмы [ 2.18 GB ] Конгресс / The Congress [2013 мультфильм BDRip-AVC] Dub potroks Скачать
1 | 0
Арт-хаус и авторское кино [ 1.46 GB ] Конгресс / The Congress [2013 мультфильм HDRip / Дублированное Ворон Скачать
1 | 0
Арт-хаус и авторское кино [ 1.46 GB ] Конгресс / The Congress [2013 Израиль Германия Польша Люксембург Бельгия мультфильм DVDRip Ворон Скачать
1 | 0

28-11-2019 20:33  

Отключить всю рекламу на сайте

24-05-2014 14:28 Конгресс Скачать торрент  

Не совсем, конечно, Станислав Лем. Но очень своеобразный, умный и эмоциональный фильм. Отвык уже от таких. И рип отличный. Спасибо. pb.wtf



25-05-2014 10:07 Конгресс Скачать торрент  

Фильм является классическим примером, на сколько раскрывают режиссеры в своих фильмах идею автора книги. Ари снял верхний слой идеи, хотя насколько я помню, именно в слоях доступности информации для населения была идея книги Лема.
Зачем-то прикрутил к этому стареющую актрису. Снятый по книге, фильм был бы гораздо прикольнее. Конечно, тогда в фильме наверно не нашлось бы места для глохнущего мальчика.
Простите за комментарии- только что посмотрел. Вообще, смотреть надо после прочтения книги С.Лема, тогда будете в теме. pb.wtf



31-05-2014 04:17 Конгресс Скачать торрент  

Дык я невкурил смотреть или нестоит?pb.wtf



27-07-2014 19:35 Конгресс Скачать торрент  

хороший экспериментальный фильм, хотя и немного мутный
к футурологическому конгрессу Лема отношения мало имеетpb.wtf



    Дорогой пользователь! Огромная просьба, поблагодарите релизера, оцените раздачу и оставьте свои комментарий, если Вы скачали Конгресс через торрент бесплатно! Внесите свою лепту в развитие PiratBit!
    Комментировать посты могут только пользователи прошедшие не сложную регистрацию
    Показать сообщения:    

    Конгресс через торрент
    Скачать бесплатно Конгресс
    Конгресс скачать торрент
    Конгресс смотреть онлайн
    Cкачать фильм Конгресс бесплатно
    Конгресс скачать торрент в хорошем качестве
    Конгресс смотреть онлайн бесплатно в хорошем качестве


    Вы не можете начинать темы
    Вы не можете отвечать на сообщения
    Вы не можете редактировать свои сообщения
    Вы не можете удалять свои сообщения
    Вы не можете голосовать в опросах
    Вы не можете прикреплять файлы к сообщениям
    Вы можете скачивать файлы