2 сезон

iTunes

MVO

1

2 сезон

iTunes

iTunes

1 сезон

RePack

30

Новинка

ВАЖНО

ИГРА 18+

pack

RePack

MK11
pack

Легкие деньги

RePack

jed

RePack

fifa19

RePack

RDR2

RePack

NEED FOR SPEED™ PAYBACK

4 сезон

9 сезон

Бесстыжие 9 сезон

Все сериалы

все сериалы на PB.wtf

RePack

FAR CRY 5

Anonymous, доброй ночи, мы не успеваем собрать деньги на оплату серверов за декабрь и январь, помогите нам пожалуйста в это трудное время. В качестве благодарности мы отключим Вам всю рекламу на сайте (укажите свой ник в строку Ваше имя)!

×
  
Magnet ссылка

The Play Game (1-3 из ?) [2014 г., обзоры и новости, WEB-DLRip 720p] pb.wtf

The Play Game через торрент pb.wtf

Размер: 781 MB | Добавлен: 6 лет 7 мес. назад | Торрент скачан:64 раза
Скачать  

24-05-2014 21:41 The Play Game Скачать торрент  

The Play Game
Год выпуска: 2014
Страна: СНГ
Жанр: обзоры и новости
Продолжительность: ~ 10-15 мин выпуск

Описание: The Play Game - это новая передача про игровые новинки и классику видео игр. Вы узнаете, во что можно поиграть на текущей неделе, и какие игры были популярны в прошедшие годы. А под конец в рубрике "без комментариев", увидите очередной видео прикол на игровую тематику.

Качество: WEB-DLRip 720p
Формат: MP4
Видео кодек: AVC
Аудио кодек: AAC
Видео: 1280x720, 3 008 kbps, 29.970 fps, 16:9
Аудио#1: AAC, 192kbps, 48000 Hz, 2 chanels
General
Complete name : Play-game 1.mp4
Format : MPEG-4
Format profile : Base Media
Codec ID : isom
File size : 257 MiB
Duration : 11mn 13s
Overall bit rate mode : Variable
Overall bit rate : 3 204 Kbps
Encoded date : UTC 2014-05-24 21:00:30
Tagged date : UTC 2014-05-24 21:00:30
Writing application : Yamb 2.1.0.0 [http://yamb.unite-video.com]

Video
ID : 1
Format : AVC
Format/Info : Advanced Video Codec
Format profile : Main@L4.1
Format settings, CABAC : Yes
Format settings, ReFrames : 3 frames
Codec ID : avc1
Codec ID/Info : Advanced Video Coding
Duration : 11mn 13s
Bit rate mode : Variable
Bit rate : 3 008 Kbps
Maximum bit rate : 50.0 Mbps
Width : 1 280 pixels
Height : 720 pixels
Display aspect ratio : 16:9
Frame rate mode : Constant
Frame rate : 29.970 fps
Standard : NTSC
Color space : YUV
Chroma subsampling : 4:2:0
Bit depth : 8 bits
Scan type : Progressive
Bits/(Pixel*Frame) : 0.109
Stream size : 241 MiB (94%)
Language : English
Encoded date : UTC 2014-05-24 20:43:37
Tagged date : UTC 2014-05-24 21:00:34

Audio
ID : 2
Format : AAC
Format/Info : Advanced Audio Codec
Format profile : LC
Codec ID : 40
Duration : 11mn 13s
Bit rate mode : Variable
Bit rate : 192 Kbps
Maximum bit rate : 196 Kbps
Channel(s) : 2 channels
Channel positions : Front: L R
Sampling rate : 48.0 KHz
Compression mode : Lossy
Stream size : 15.4 MiB (6%)
Language : English
Encoded date : UTC 2014-05-24 20:59:22
Tagged date : UTC 2014-05-24 21:00:34
скриншот   скриншот   скриншот   скриншот  
Превью: Транзистор, Wolfenstein: The New Order, The Incredible Adventures of Van Helsing II, Tropico 5, Watch Dogs
Обзор классических игр: Quake, Diablo
Новинки: Persona Q: Shadow of the Labyrinth, Murdered: Soul Suspect, Pandora: First Contact, ARMA III, WildStar.
Классика: Дум, Век Дракона
Новинки игр: Etherium, Enemy Front, The Forest, mong The Sleep, The Wolf Among Us: Episode 4 — In Sheep's Clothing
Классические игры: WarCraft 1-3
pb.wtf



Скачать The Play Game через торрент http://pic.kartinco.top/images/6/w152m.jpg Скачать фильм The Play Game через торрент бесплантно в хорошем качестве Описание: The Play Game - это новая передача про игровые новинки и классику видео игр. Вы узнаете, во что можно поиграть на текущей неделе, ... 9.3 10 17
Торрент: Зарегистрирован [2014-06-08 10:16] · скачан: 64 раз
Статус: √ проверено
Размер: 781 MB
Как cкачать? Как скачать The Play Game через торрент | UTorrent

% Раздел Тема Автор DL S | L
Игры без таблетки [Pre-Load / Denuvo] [ 1.91 GB ] Scott Pilgrim vs The World The Game [ ENG | MULTi4] [Uplay-Rip] by XLASER XLASER Скачать
1 | 0
MMORPG [ 22.1 GB ] The Star Wars: The Old Republic/ Game Update 2.2 2013 [Multi] License [ MMORPG] - FREE TO PLAY!!! lopata12 Скачать
1 | 0
HD ролики [ 910 MB ] Madison Ivy Gianna Dior — Toy-For-Her Party [2019 One-on-One Sex Feet Fetish Ass Licking Face Sitting Pussy Fingering Pussy Licking Lesbian Work Fantasies Scissoring Dildo] [1080p][Twistys.com / WhenGirlsPlay.com] Venom Скачать
1 | 0
Большие сиськи [ 344 MB ] Gianna Dior Madison Ivy [2018 Big tits Hardcore Threesome SiteRip][DigitalPlayground.com] BadYarik Скачать
1 | 0
Порно фильмы без сюжета [ 1.95 GB ] Начинка Студента 2 / Stuffing The Student 2 [2018 All Sex Anal Oral Gonzo Facial Teachers 18+ Schoolgirls 18+ Teens WEB-DL 480p] Split Scenes sheker187 Скачать
1 | 0
Порно фильмы без сюжета [ 3.08 GB ] Поиграем в Игру / Playing The Game [2018 All Sex Oral Legal Teen Facial Couples WEB-DL 480p] Split Scenes sheker187 Скачать
1 | 0
Разное [ 890 MB ] Jessica Rex [2018 All Sex SiteRip][TeenFidelity.com / KellyMadisonMedia.com] BadYarik Скачать
1 | 0


Последний раз редактировалось: AlexZuska (2014-06-08 10:15), всего редактировалось 2 раз(а)

28-11-2019 20:33  

Отключить всю рекламу на сайте

31-05-2014 10:13 The Play Game Скачать торрент  

Добавлен второй выпускpb.wtf



08-06-2014 10:17 The Play Game Скачать торрент  

Добавлен 3-й выпускpb.wtf



    Дорогой пользователь! Огромная просьба, поблагодарите релизера, оцените раздачу и оставьте свои комментарий, если Вы скачали The Play Game через торрент бесплатно! Внесите свою лепту в развитие PiratBit!
    Комментировать посты могут только пользователи прошедшие не сложную регистрацию
    Показать сообщения:    

    The Play Game через торрент
    Скачать бесплатно The Play Game
    The Play Game скачать торрент
    The Play Game смотреть онлайн
    Cкачать фильм The Play Game бесплатно
    The Play Game скачать торрент в хорошем качестве
    The Play Game смотреть онлайн бесплатно в хорошем качестве


    Вы не можете начинать темы
    Вы не можете отвечать на сообщения
    Вы не можете редактировать свои сообщения
    Вы не можете удалять свои сообщения
    Вы не можете голосовать в опросах
    Вы не можете прикреплять файлы к сообщениям
    Вы можете скачивать файлы