MEGA SALE -50% FORZA HORIZON 4 ULTIMATE+ВСЕ DLC+ОНЛАЙН всего за 599р. 299 руб. (супер цена). Внимание количество ограничено!!!

iTunes

1+1

iTunes

мы

iTunes

1

iTunes

Чернобыль

iTunes

Ральф против интернета

Лицензия

ПШазам

Лицензия

Игра престолов

Лицензия

30
pack

ВАЖНО

!!Акция!!

Alien_RageХит недели

RePack

Resident Evil 21

ИГРА 18+

pack

RePack

Metro:Exodus

!!Акция!!

Alien_Rage

RePack

fifa19

RePack

Assassins Creed: Odyssey

RePack

NEED FOR SPEED™ PAYBACK

3 сезон

9 сезон

Бесстыжие 9 сезон

Все сериалы

все сериалы на PB.wtf

RePack

FAR CRY 5
Ребята, катастрофически не хватает 7730р. для оплаты серверов за АВГУСТ (всвязи с блокировками трафик упал в 3 раза), 1-2р., выручайте.
  

Оскар и Розовая дама / Oscar et la dame rose (Эрик-Эммануэль Шмитт) [2009 г., драма, HDRip, Любительский одноголосый] от R.G. PiratFilms pb.wtf

Оскар и Розовая дама через торрент pb.wtf

Размер: 1.37 GB | Добавлен: 5 лет 3 мес. назад | Торрент скачан:16 раз
Скачать  

25-05-2014 05:22 Оскар и Розовая дама Скачать торрент  

Оскар и Розовая дама / Oscar et la dame rose

Год выпуска: 2009
Страна: Франция, Бельгия, Канада
Жанр: драма
Продолжительность: 01:45:42
Перевод: Любительский (одноголосый закадровый) / Хуан Рохас /

Режиссер: Эрик-Эммануэль Шмитт
Продюссер: Филипп Годо, Бруно Мецгер, Оливье Росен
Сценарий: Эрик-Эммануэль Шмитт
Премьера в мире: 9 декабря 2009

IMDB 7.10 (734)


В ролях: Мишель Ларок, Амир Бен Абдельмоумен, Макс фон Сюдов, Амира Касар, Констанс Долле, Жером Киршер, Милен Демонжо, Бенуа Бриер, Матильда Гоффарт, Бруно Мецгер

Описание: Оскар, десятилетний мальчонка, вот уже несколько месяцев пребывает в госпитале. Ни его родители, ни врачи не хотят говорить ему о его болезни. Только Роз — ворчливая доставщица пиццы — общается с ним открыто и прямо. Чтобы как-то его развлечь, Роз придумывает игру : каждый из 12ти оставшихся дней его жизни считать за десять лет. Так он проживает целую жизнь. А чтобы делиться впечатлениями, тревогами и радостями своей жизни, Оскар пишет письма Богу, и Роз их отправляет на воздушном шарике в небо. Оба они и не подозревают, насколько повлияет на них их дружба..



Качество: HDRip
Формат: AVI
Видео кодек: XviD
Аудио кодек: AC3
Видео: MPEG4, XviD, 720x304 (2.35:1), 23.976 fps, 1 396 Kbps (0.266 bit/pixel)
Аудио: AC-3, 48.0 KHz, 6 ch, 448 Kbps, CBR (Russian)
Формат : AVI
Формат/Информация : Audio Video Interleave
Размер файла : 1,37 Гбайт
Продолжительность : 1 ч. 45 м.
Общий поток : 1854 Кбит/сек
Название фильма : Oscar.et.la.dame.rose.2009.HDRip.kep.от R.G. PiratFilms
Программа кодирования : VirtualDubMod 1.5.10.3 | www.virtualdub-fr.org || (build 2550/release)
Примечание : Rip ot kep

Видео
Идентификатор : 0
Формат : MPEG-4 Visual
Профиль формата : Advanced Simple@L5
Параметр BVOP формата : 2
Параметр QPel формата : Нет
Параметр GMC формата : Без точки перехода
Параметр матрицы формата : Default (H.263)
Идентификатор кодека : XVID
Идентификатор кодека/Подсказка : XviD
Продолжительность : 1 ч. 45 м.
Битрейт : 1396 Кбит/сек
Ширина : 720 пикселей
Высота : 304 пикселя
Соотношение сторон : 2,35:1
Частота кадров : 23,976 кадра/сек
Цветовое пространство : YUV
Субдискретизация насыщенности : 4:2:0
Битовая глубина : 8 бит
Тип развёртки : Прогрессивная
Метод сжатия : С потерями
Бит/(Пиксели*Кадры) : 0.266
Размер потока : 1,03 Гбайт (75%)
Библиотека кодирования : XviD 1.2.1 (UTC 2008-12-04)

Аудио
Идентификатор : 1
Формат : AC-3
Формат/Информация : Audio Coding 3
Расширение режима : CM (complete main)
Параметр Endianness формата : Big
Идентификатор кодека : 2000
Продолжительность : 1 ч. 45 м.
Вид битрейта : Постоянный
Битрейт : 448 Кбит/сек
Каналы : 6 каналов
Расположение каналов : Front: L C R, Side: L R, LFE
Частота : 48,0 КГц
Битовая глубина : 16 бит
Метод сжатия : С потерями
Размер потока : 339 Мбайт (24%)
Выравнивание : Разделение по промежуткам
Продолжительность промежутка : 42 мс. (1,00 видеокадр)
Время предзагрузки промежутка : 500 мс.
Сэмпл / Трейлерскриншот   скриншот   скриншот   скриншот   скриншот   скриншот  pb.wtf



Скачать Оскар и Розовая дама через торрент http://3.firepic.org/3/images/2014-05/25/ldiho13h50q2.png Скачать фильм Оскар и Розовая дама через торрент бесплантно в хорошем качестве Описание: Оскар, десятилетний мальчонка, вот уже несколько месяцев пребывает в госпитале. Ни его родители, ни врачи не хотят говорить ему о ... 7.5 10 2
Info! Золотая раздача, скачанное не засчитывается.
Торрент: Зарегистрирован [2014-05-25 05:22] · скачан: 16 раз
Статус: √ проверено
Размер: 1.37 GB
Как cкачать? Как скачать Оскар и Розовая дама через торрент | qTorrent


>> Регистрируемся здесь <<






Отзывы и комментарии о схеме читаем и пишем здесь: ---> Отзывы и комментарии о схеме

Новые благодарочки в телеграм довольных пользователей:
скриншот   скриншот   скриншот   скриншот   скриншот
    Дорогой пользователь! Огромная просьба, поблагодарите релизера, оцените раздачу и оставьте свои комментарий, если Вы скачали Оскар и Розовая дама через торрент бесплатно! Внесите свою лепту в развитие PiratBit!
    Комментировать посты могут только пользователи прошедшие не сложную регистрацию
    Показать сообщения:    

    Оскар и Розовая дама через торрент
    Скачать бесплатно Оскар и Розовая дама
    Оскар и Розовая дама скачать торрент
    Оскар и Розовая дама смотреть онлайн
    Cкачать фильм Оскар и Розовая дама бесплатно
    Оскар и Розовая дама скачать торрент в хорошем качестве
    Оскар и Розовая дама смотреть онлайн бесплатно в хорошем качестве


    Вы не можете начинать темы
    Вы не можете отвечать на сообщения
    Вы не можете редактировать свои сообщения
    Вы не можете удалять свои сообщения
    Вы не можете голосовать в опросах
    Вы не можете прикреплять файлы к сообщениям
    Вы можете скачивать файлы