Ссылка на приватное зеркало нашего сайта всего за 1$. Внимание количество ограничено!!!

2 сезон

iTunes

1 сезон

1

2 сезон

2 сезон

iTunes

1 сезон

RePack

30

Ultimate

ВАЖНО

ИГРА 18+

pack

RePack

MK11
pack

Забери бонус

RePack

jed

!!Акция!!

Alien_Rage

RePack

fifa19

RePack

Assassins Creed: Odyssey

RePack

NEED FOR SPEED™ PAYBACK

4 сезон

9 сезон

Бесстыжие 9 сезон

Все сериалы

все сериалы на PB.wtf

RePack

FAR CRY 5
  

Ромео и Джульетта / Romeo and Juliet (Карло Карлей / Carlo Carlei) [2013, драма, мелодрама, BD-Remux, USA Transfer, Дублированный, Лицензия] pb.wtf

Ромео и Джульетта через торрент pb.wtf

Размер: 27.69 GB | Добавлен: 6 лет 6 мес. назад | Торрент скачан:8 раз
Скачать  

25-05-2014 09:26 Ромео и Джульетта Скачать торрент  

Ромео и Джульетта / Romeo and Juliet
«Величайшая история любви всех времён»



Год выпуска: 2013
Страна: Великобритания, Италия, Швейцария
Жанр: драма, мелодрама
Продолжительность: 01:58:32
Перевод: Дублированный [Лицензия]
Субтитры: Английские (PGS)


Режиссер:
  • Карло Карлей / Carlo Carlei
В ролях:
  • Дуглас Бут (Romeo), Хейли Стайнфелд (Juliet), Дэмиэн Льюис (Lord Capulet), Коди Смит-МакФи (Benvolio), Эд Вествик (Tybalt), Пол Джаматти (Friar Laurence), Томас Арана (Lord Montague), Наташа МакЭлхоун (Lady Capulet), Стеллан Скарсгард (Prince of Verona), Лесли Мэнвилл (Nurse), Лаура Моранте (Lady Montague), Том Уисдом (Count Paris)
Описание: Верона. Эпоха Раннего Возрождения. Юноша и девушка из враждующих семей влюбляются друг в друга. Рок не дает им быть вместе. Лишь смерть на пике запретной страсти помогает Ромео и Джульетте спасти свою любовь.


Качество: BD-Remux
Формат: MKV
Видео кодек: AVC
Аудио кодек: AC3
Видео: AVC, 1920x1080 (16:9), 31503 kbps, 23,976 fps, 0,634 bpp
Аудио №1: русский / AC3 / 5.1 / 48 kHz / 640 kbps / 16 bit
Аудио №2: английский / AC3 / 5.1 / 48 kHz / 640 kbps / 16 bit


Код:

General
Unique ID                                : 196972994619745160633108325066948738220 (0x942F9E6D6FED06C7A038E38A1B03FCAC)
Complete name                            : I:\Ромео и Джульетта (2013) [USA Transfer] BD-Remux.mkv
Format                                   : Matroska
Format version                           : Version 4 / Version 2
File size                                : 27.7 GiB
Duration                                 : 1h 58mn
Overall bit rate mode                    : Variable
Overall bit rate                         : 33.4 Mbps
Encoded date                             : UTC 2014-05-24 23:09:30
Writing application                      : mkvmerge v6.6.0 ('The Edge Of The In Between') built on Dec  1 2013 17:55:00
Writing library                          : libebml v1.3.0 + libmatroska v1.4.1
Attachment                               : Yes

Video
ID                                       : 1
Format                                   : AVC
Format/Info                              : Advanced Video Codec
Format profile                           : High@L4.1
Format settings, CABAC                   : Yes
Format settings, ReFrames                : 2 frames
Codec ID                                 : V_MPEG4/ISO/AVC
Duration                                 : 1h 58mn
Bit rate mode                            : Variable
Bit rate                                 : 31.5 Mbps
Width                                    : 1 920 pixels
Height                                   : 1 080 pixels
Display aspect ratio                     : 16:9
Frame rate                               : 23.976 fps
Color space                              : YUV
Chroma subsampling                       : 4:2:0
Bit depth                                : 8 bits
Scan type                                : Progressive
Bits/(Pixel*Frame)                       : 0.634
Stream size                              : 26.1 GiB (94%)
Language                                 : English
Default                                  : Yes
Forced                                   : No

Audio #1
ID                                       : 2
Format                                   : AC-3
Format/Info                              : Audio Coding 3
Mode extension                           : CM (complete main)
Codec ID                                 : A_AC3
Duration                                 : 1h 58mn
Bit rate mode                            : Constant
Bit rate                                 : 640 Kbps
Channel(s)                               : 6 channels
Channel positions                        : Front: L C R, Side: L R, LFE
Sampling rate                            : 48.0 KHz
Bit depth                                : 16 bits
Compression mode                         : Lossy
Stream size                              : 543 MiB (2%)
Language                                 : Russian
Default                                  : Yes
Forced                                   : No

Audio #2
ID                                       : 3
Format                                   : AC-3
Format/Info                              : Audio Coding 3
Mode extension                           : CM (complete main)
Codec ID                                 : A_AC3
Duration                                 : 1h 58mn
Bit rate mode                            : Constant
Bit rate                                 : 640 Kbps
Channel(s)                               : 6 channels
Channel positions                        : Front: L C R, Side: L R, LFE
Sampling rate                            : 48.0 KHz
Bit depth                                : 16 bits
Compression mode                         : Lossy
Stream size                              : 543 MiB (2%)
Language                                 : English
Default                                  : No
Forced                                   : No

Text
ID                                       : 4
Format                                   : PGS
Muxing mode                              : zlib
Codec ID                                 : S_HDMV/PGS
Codec ID/Info                            : The same subtitle format used on BDs/HD-DVDs
Language                                 : English
Default                                  : No
Forced                                   : No

Menu
00:00:00.000                             : en:00:00:00.000
00:07:11.973                             : en:00:07:11.973
00:13:25.179                             : en:00:13:25.179
00:20:13.879                             : en:00:20:13.879
00:32:48.717                             : en:00:32:48.717
00:44:23.578                             : en:00:44:23.578
00:53:46.140                             : en:00:53:46.140
01:02:56.231                             : en:01:02:56.231
01:14:37.014                             : en:01:14:37.014
01:21:35.307                             : en:01:21:35.307
01:27:30.328                             : en:01:27:30.328
01:33:32.232                             : en:01:33:32.232
01:38:32.490                             : en:01:38:32.490
01:43:27.034                             : en:01:43:27.034
01:50:45.389                             : en:01:50:45.389

скриншот   скриншот   скриншот   скриншот   pb.wtf



Скачать Ромео и Джульетта через торрент http://i64.fastpic.ru/big/2014/0525/0d/f309a509aec49c7e9fc8a18241ef680d.png Скачать фильм Ромео и Джульетта через торрент бесплантно в хорошем качестве Описание: Верона. Эпоха Раннего Возрождения. Юноша и девушка из враждующих семей влюбляются друг в друга. Рок не дает им быть вместе. Лишь ... 9 10 5
Info! Золотая раздача, скачанное не засчитывается.
Торрент: Зарегистрирован [2014-05-25 09:26] · скачан: 8 раз
Статус: √ проверено
Размер: 27.69 GB
Как cкачать? Как скачать Ромео и Джульетта через торрент | qTorrent

% Раздел Тема Автор DL S | L
Фильмы [HD 720p, 1080p] (Звук Cam, VO, DVO) [ 4.67 GB ] Ромео и Джульетта / Romeo and Juliet [1968 Мелодрада HDTVRip 720p ] Caня Скачать
1 | 0
Фильмы 2013 [DVDrip, WEB-DLRip, HDrip] [ 2.18 GB ] Ромео и Джульетта / Romeo and Juliet [2013 BDRip ] DJERG Скачать
1 | 0
Фильмы (Blu-ray, BD-Remux, HDDVD) [ 33.2 GB ] Ромео и Джульетта / Romeo and Juliet [2013 USA Transfer / Blu-Ray Remux ] кэп Скачать
1 | 0
Классические порно фильмы [ 1.12 GB ] Juliet And Romeo / Джульетта и Ромео [1995 All Sex Feature Oral Anal Foreign Group / Joe D'Amato) DVDRip] Majestro Скачать
1 | 1
Фильмы 2013 [DVDrip, WEB-DLRip, HDrip] [ 1.46 GB ] Ромео и Джульетта / Romeo and Juliet [2013 HDRip [] MihailHD Скачать
1 | 0
Фильмы (DVD фильмы) [ 6.76 GB ] Ромео и Джульетта / Romeo and Juliet [2013 DVD9] R5 voovaz Скачать
1 | 0
Фильмы 2013 [DVDrip, WEB-DLRip, HDrip] [ 2.19 GB ] Ромео и Джульетта / Romeo and Juliet [2013 WEB-DLRip ] coc900 Скачать
1 | 0

28-11-2019 20:33  

Отключить всю рекламу на сайте

25-05-2014 09:27 Ромео и Джульетта Скачать торрент  

*Seedtank Edition
Релиз для настоящих коллекционеров.
Вшита обложка, перекодирован кодек в АС3 для воспроизводимости на любых медиаплеерах.
pb.wtf



25-05-2014 10:21 Ромео и Джульетта Скачать торрент  

Над этой историей молодёжь сейчас смеётсяpb.wtf



20-09-2017 20:30 Ромео и Джульетта Скачать торрент  

поддайте газку, хоть кто-то
пожалуйстаpb.wtf



    Дорогой пользователь! Огромная просьба, поблагодарите релизера, оцените раздачу и оставьте свои комментарий, если Вы скачали Ромео и Джульетта через торрент бесплатно! Внесите свою лепту в развитие PiratBit!
    Комментировать посты могут только пользователи прошедшие не сложную регистрацию
    Показать сообщения:    

    Ромео и Джульетта через торрент
    Скачать бесплатно Ромео и Джульетта
    Ромео и Джульетта скачать торрент
    Ромео и Джульетта смотреть онлайн
    Cкачать фильм Ромео и Джульетта бесплатно
    Ромео и Джульетта скачать торрент в хорошем качестве
    Ромео и Джульетта смотреть онлайн бесплатно в хорошем качестве


    Вы не можете начинать темы
    Вы не можете отвечать на сообщения
    Вы не можете редактировать свои сообщения
    Вы не можете удалять свои сообщения
    Вы не можете голосовать в опросах
    Вы не можете прикреплять файлы к сообщениям
    Вы можете скачивать файлы