Ссылка на приватное зеркало нашего сайта всего за 1$. Внимание количество ограничено!!!

2 сезон

iTunes

1 сезон

1

iTunes

iTunes

iTunes

1 сезон

RePack

30

ИГРА 18+

pack

ВАЖНО

!!Акция!!

Alien_RageХит недели

RePack

MK11
pack

Забери бонус

RePack

jed

!!Акция!!

Alien_Rage

RePack

fifa19

RePack

Assassins Creed: Odyssey

RePack

NEED FOR SPEED™ PAYBACK

4 сезон

9 сезон

Бесстыжие 9 сезон

Все сериалы

все сериалы на PB.wtf

RePack

FAR CRY 5
  

Враждебный / Animus (Куин Дэвис) [2013 г., ужасы, триллер, HDRip, Любительский двухголосый] pb.wtf

Враждебный через торрент pb.wtf

Размер: 1.45 GB | Добавлен: 6 лет 5 мес. назад | Торрент скачан:261 раз
Скачать  

25-05-2014 10:17 Враждебный Скачать торрент  

Враждебный / Animus
Год выпуска: 2013
Страна: США / Q. Davis Films
Жанр: ужасы, триллер
Продолжительность: 01:20:24
Перевод: Любительский двухголосый (DeadSno & den904)

Режиссер: Куин Дэвис

В ролях: Джон Бернат, Меган Дэвис, Кэйтлин Сингер, Каффс, Брэндон Ли Питтман, Тиффани Энн Б., Тринидад Амайа, Джоан Шумахер, Грегори Свит, Винелль Вотерс

Описание: Группа молодых документалистов снимают дипломную работу в заброшенном шахтерском городке на краю Аризоны. Но не шахты с бродящими в них призраками привели сюда молодых журналистов, а старая закрытая больница, в которой прячется что-то ужасное и очень враждебное.

Присутствует ненормативная лексика

Качество: HDRip
Формат: AVI
Видео кодек: XviD
Аудио кодек: AC3
Видео: 720x400 (1.80:1), 23.976 fps, XviD build 50 ~2378 kbps avg, 0.34 bit/pixel
Аудио: 48 kHz, AC3 Dolby Digital, 2/0 (L,R) ch, ~192 kbps

скриншот   скриншот   скриншот   скриншот   скриншот  

Общее
Полное имя : H:\кино\Animus.2013.HDRip.avi
Формат : AVI
Формат/Информация : Audio Video Interleave
Размер файла : 1,45 Гбайт
Продолжительность : 1 ч. 20 м.
Общий поток : 2580 Кбит/сек
Программа кодирования : VirtualDubMod 1.5.10.3 | www.virtualdub-fr.org || (build 2550/release)
Библиотека кодирования : VirtualDubMod build 2550/release

Видео
Идентификатор : 0
Формат : MPEG-4 Visual
Профиль формата : Advanced Simple@L5
Параметр BVOP формата : 2
Параметр QPel формата : Нет
Параметр GMC формата : Без точки перехода
Параметр матрицы формата : Default (H.263)
Идентификатор кодека : XVID
Идентификатор кодека/Подсказка : XviD
Продолжительность : 1 ч. 20 м.
Битрейт : 2378 Кбит/сек
Ширина : 720 пикселей
Высота : 400 пикселей
Соотношение сторон : 16:9
Частота кадров : 23,976 кадра/сек
Цветовое пространство : YUV
Субдискретизация насыщенности : 4:2:0
Битовая глубина : 8 бит
Тип развёртки : Прогрессивная
Метод сжатия : С потерями
Бит/(Пиксели*Кадры) : 0.344
Размер потока : 1,34 Гбайт (92%)
Библиотека кодирования : XviD 1.2.1 (UTC 2008-12-04)

Аудио
Идентификатор : 1
Формат : AC-3
Формат/Информация : Audio Coding 3
Расширение режима : CM (complete main)
Параметр Endianness формата : Big
Идентификатор кодека : 2000
Продолжительность : 1 ч. 20 м.
Вид битрейта : Постоянный
Битрейт : 192 Кбит/сек
Каналы : 2 канала
Расположение каналов : Front: L R
Частота : 48,0 КГц
Битовая глубина : 16 бит
Метод сжатия : С потерями
Размер потока : 110 Мбайт (7%)
Выравнивание : Разделение по промежуткам
Продолжительность промежутка : 42 мс. (1,00 видеокадр)
Время предзагрузки промежутка : 500 мс.

pb.wtf



Скачать Враждебный через торрент http://pic.kartinco.top/images/6/1bysu.jpg Скачать фильм Враждебный через торрент бесплантно в хорошем качестве Описание: Группа молодых документалистов снимают дипломную работу в заброшенном шахтерском городке на краю Аризоны. Но не шахты с бродящими ... 8.3 10 16
Торрент: Зарегистрирован [2014-05-25 10:17] · скачан: 261 раз
Статус: T временная
Размер: 1.45 GB
Как cкачать? Как скачать Враждебный через торрент | qTorrent

28-11-2019 20:33  

Отключить всю рекламу на сайте

25-05-2014 20:37 Враждебный Скачать торрент  

Трешак в лучших традициях ТВ3
:rofle:pb.wtf



27-05-2014 20:09 Враждебный Скачать торрент  

Редкосное г....pb.wtf



07-06-2014 09:58 Враждебный Скачать торрент  

На скриншотах самые страшные моменты фильма? sarcastic :rofle:pb.wtf



    Дорогой пользователь! Огромная просьба, поблагодарите релизера, оцените раздачу и оставьте свои комментарий, если Вы скачали Враждебный через торрент бесплатно! Внесите свою лепту в развитие PiratBit!
    Комментировать посты могут только пользователи прошедшие не сложную регистрацию
    Показать сообщения:    

    Враждебный через торрент
    Скачать бесплатно Враждебный
    Враждебный скачать торрент
    Враждебный смотреть онлайн
    Cкачать фильм Враждебный бесплатно
    Враждебный скачать торрент в хорошем качестве
    Враждебный смотреть онлайн бесплатно в хорошем качестве


    Вы не можете начинать темы
    Вы не можете отвечать на сообщения
    Вы не можете редактировать свои сообщения
    Вы не можете удалять свои сообщения
    Вы не можете голосовать в опросах
    Вы не можете прикреплять файлы к сообщениям
    Вы можете скачивать файлы