Ссылка на приватное зеркало нашего сайта всего за 1$. Внимание количество ограничено!!!

2 сезон

iTunes

1 сезон

1

2 сезон

2 сезон

iTunes

1 сезон

RePack

30

Ultimate

ВАЖНО

ИГРА 18+

pack

RePack

MK11
pack

Забери бонус

RePack

jed

!!Акция!!

Alien_Rage

RePack

fifa19

RePack

Assassins Creed: Odyssey

RePack

NEED FOR SPEED™ PAYBACK

4 сезон

9 сезон

Бесстыжие 9 сезон

Все сериалы

все сериалы на PB.wtf

RePack

FAR CRY 5
  

Пол: Секретный материальчик / Paul (Грег Моттола / Greg Mottola) [2011, фантастика, комедия, приключения, BD-Remux, Дублированный, Лицензия] от R.G. HD-Films pb.wtf

Пол: Секретный материальчик через торрент pb.wtf

Размер: 17.97 GB | Добавлен: 6 лет 5 мес. назад | Торрент скачан:8 раз
Скачать  

25-05-2014 18:26 Пол: Секретный материальчик Скачать торрент  

Пол: Секретный материальчик / Paul
«Кто готов к тесному контакту?»



Год выпуска: 2011
Страна: США, Великобритания
Жанр: фантастика, комедия, приключения
Продолжительность: 01:43:40
Перевод: Дублированный [Лицензия]
Субтитры: Русские (форсированные, полные), Английские (полные)



Режиссер:
  • Грег Моттола / Greg Mottola
В ролях:
  • Саймон Пегг, Ник Фрост, Сет Роген, Кристен Уиг, Джейсон Бейтман, Сигурни Уивер, Билл Хейдер, Джо Ло Трульо, Блайт Даннер, Джон Кэрролл Линч, Джеффри Тэмбор, Дэвид Кокнер
Описание: Два английских гика отправляются на одно из самых значимых фанатских событий в области фантастики - конвент ComicCon в Америке. По пути, неподалёку от известной Зоны 51, они встречают сбежавшего инопланетянина по имени Пол, который просит помочь ему добраться домой. Пытаясь спастись от правительственных агентов, герои случайно похищают женщину и натыкаются на обкуренную свидетельницу аварийной посадки Пола на Землю.



Качество: BD-Remux
Формат: MKV
Видео кодек: AVC
Аудио кодек: AC3
Видео: AVC, 1920x1080 (16:9), 23,976 fps, 23036 kbps, 0,463 bpp
Аудио №1: AC3, 48 kHz, 5.1 ch, 640 kbps, русский
Аудио №2: AC3, 48 kHz, 5.1 ch, 640 kbps, английский


Общее
Уникальный идентификатор : 227716741546660979273624784561150949407 (0xAB50A62DED7A83F7BCB938448810F81F)
Полное имя : I:\Пол. Секретный материальчик (2011) BD-Remux.mkv
Формат : Matroska
Версия формата : Version 4 / Version 2
Размер файла : 18,0 Гбайт
Продолжительность : 1 ч. 43 м.
Режим общего битрейта : Переменный
Общий поток : 24,8 Мбит/сек
Дата кодирования : UTC 2014-06-05 14:47:24
Программа кодирования : mkvmerge v6.6.0 ('The Edge Of The In Between') built on Dec 1 2013 17:55:00
Библиотека кодирования : libebml v1.3.0 + libmatroska v1.4.1
Attachment : Yes

Видео
Идентификатор : 1
Формат : AVC
Формат/Информация : Advanced Video Codec
Профиль формата : High@L4.1
Параметр CABAC формата : Да
Параметр ReFrames формата : 4 кадра
Идентификатор кодека : V_MPEG4/ISO/AVC
Продолжительность : 1 ч. 43 м.
Вид битрейта : Переменный
Битрейт : 23,0 Мбит/сек
Максимальный битрейт : 34,0 Мбит/сек
Ширина : 1920 пикселей
Высота : 1080 пикселей
Соотношение сторон : 16:9
Режим частоты кадров : Постоянный
Частота кадров : 23,976 кадра/сек
Цветовое пространство : YUV
Субдискретизация насыщенности : 4:2:0
Битовая глубина : 8 бит
Тип развёртки : Прогрессивная
Бит/(Пиксели*Кадры) : 0.463
Размер потока : 16,7 Гбайт (93%)
Default : Да
Forced : Нет
Основные цвета : BT.709
Характеристики трансфера : BT.709
Коэффициенты матрицы : BT.709

Аудио #1
Идентификатор : 2
Формат : AC-3
Формат/Информация : Audio Coding 3
Расширение режима : CM (complete main)
Параметр Endianness формата : Big
Идентификатор кодека : A_AC3
Продолжительность : 1 ч. 43 м.
Вид битрейта : Постоянный
Битрейт : 640 Кбит/сек
Каналы : 6 каналов
Расположение каналов : Front: L C R, Side: L R, LFE
Частота : 48,0 КГц
Битовая глубина : 16 бит
Метод сжатия : С потерями
Размер потока : 475 Мбайт (3%)
Заголовок : Дублированный, Blu-ray
Язык : Russian
Default : Да
Forced : Нет

Аудио #2
Идентификатор : 3
Формат : AC-3
Формат/Информация : Audio Coding 3
Расширение режима : CM (complete main)
Параметр Endianness формата : Big
Идентификатор кодека : A_AC3
Продолжительность : 1 ч. 43 м.
Вид битрейта : Постоянный
Битрейт : 640 Кбит/сек
Каналы : 6 каналов
Расположение каналов : Front: L C R, Side: L R, LFE
Частота : 48,0 КГц
Битовая глубина : 16 бит
Метод сжатия : С потерями
Размер потока : 475 Мбайт (3%)
Заголовок : Оригинал
Язык : English
Default : Нет
Forced : Нет

Текст #1
Идентификатор : 4
Формат : UTF-8
Идентификатор кодека : S_TEXT/UTF8
Идентификатор кодека/Информация : UTF-8 Plain Text
Заголовок : Форсированные
Язык : Russian
Default : Да
Forced : Нет

Текст #2
Идентификатор : 5
Формат : UTF-8
Идентификатор кодека : S_TEXT/UTF8
Идентификатор кодека/Информация : UTF-8 Plain Text
Заголовок : Полные
Язык : Russian
Default : Нет
Forced : Нет

Текст #3
Идентификатор : 6
Формат : UTF-8
Идентификатор кодека : S_TEXT/UTF8
Идентификатор кодека/Информация : UTF-8 Plain Text
Заголовок : Полные
Язык : English
Default : Нет
Forced : Нет

Меню
00:00:00.000 : en:00:00:00.000
00:05:25.325 : en:00:05:25.325
00:11:20.763 : en:00:11:20.763
00:16:52.637 : en:00:16:52.637
00:23:53.891 : en:00:23:53.891
00:28:58.445 : en:00:28:58.445
00:31:24.591 : en:00:31:24.591
00:36:50.333 : en:00:36:50.333
00:40:54.619 : en:00:40:54.619
00:43:57.426 : en:00:43:57.426
00:51:13.320 : en:00:51:13.320
00:56:30.387 : en:00:56:30.387
01:00:42.347 : en:01:00:42.347
01:07:01.142 : en:01:07:01.142
01:11:41.756 : en:01:11:41.756
01:18:28.412 : en:01:18:28.412
01:21:06.487 : en:01:21:06.487
01:26:53.125 : en:01:26:53.125
01:30:45.940 : en:01:30:45.940
01:35:29.641 : en:01:35:29.641

Код:


Бюджет фильма: $40 000 000
Премьера (мир): 14 февраля 2011
Премьера (РФ): 24 марта 2011,
«UPI»

Релиз на Blu-Ray: 28 июня 2011,
«Юниверсал Пикчерс Рус»,
...

Релиз на DVD: 21 июня 2011,
«Юниверсал Пикчерс Рус»,
...



pb.wtf



Скачать Пол: Секретный материальчик через торрент http://i63.fastpic.ru/big/2014/0525/5a/97f975fc190d8eff7390b53c6159f85a.png Скачать фильм Пол: Секретный материальчик через торрент бесплантно в хорошем качестве Описание: Два английских гика отправляются на одно из самых значимых фанатских событий в области фантастики - конвент ComicCon в Америке. ... 10 10 15
Info! Золотая раздача, скачанное не засчитывается.
Торрент: Зарегистрирован [2014-06-05 15:30] · скачан: 8 раз
Статус: √ проверено
Размер: 17.97 GB
Как cкачать? Как скачать Пол: Секретный материальчик через торрент | qTorrent



Последний раз редактировалось: Seedtank (2014-06-05 15:33), всего редактировалось 3 раз(а)

28-11-2019 20:33  

Отключить всю рекламу на сайте

25-05-2014 18:26 Пол: Секретный материальчик Скачать торрент  

Релиз для настоящих коллекционеров.
Вшита обложка, перекодирован кодек в АС3 для воспроизводимости на любых медиаплеерах.
Внимание! Торрент перезалит! Изменены субтитры и устранены проблемы с аудио дорожками. Моя вина, прошу прощения, исправил.
pb.wtf





Последний раз редактировалось: Seedtank (2014-06-05 15:25), всего редактировалось 1 раз

04-06-2014 17:53 Пол: Секретный материальчик Скачать торрент  

спасибо за релиз, давно скачал но только сейчас решил посмотреть и заметил что немного репит (помехи небольшие) в колонках... проверил на разных плеерах все равно.pb.wtf



05-06-2014 17:40 Пол: Секретный материальчик Скачать торрент  

Прикольный фильм :)pb.wtf



15-09-2015 21:17 Пол: Секретный материальчик Скачать торрент  

дайти скорости пожалуйста!!!pb.wtf



    Дорогой пользователь! Огромная просьба, поблагодарите релизера, оцените раздачу и оставьте свои комментарий, если Вы скачали Пол: Секретный материальчик через торрент бесплатно! Внесите свою лепту в развитие PiratBit!
    Комментировать посты могут только пользователи прошедшие не сложную регистрацию
    Показать сообщения:    

    Пол: Секретный материальчик через торрент
    Скачать бесплатно Пол: Секретный материальчик
    Пол: Секретный материальчик скачать торрент
    Пол: Секретный материальчик смотреть онлайн
    Cкачать фильм Пол: Секретный материальчик бесплатно
    Пол: Секретный материальчик скачать торрент в хорошем качестве
    Пол: Секретный материальчик смотреть онлайн бесплатно в хорошем качестве


    Вы не можете начинать темы
    Вы не можете отвечать на сообщения
    Вы не можете редактировать свои сообщения
    Вы не можете удалять свои сообщения
    Вы не можете голосовать в опросах
    Вы не можете прикреплять файлы к сообщениям
    Вы можете скачивать файлы