2 сезон

iTunes

MVO

1

2 сезон

iTunes

iTunes

1 сезон

RePack

30

Ultimate

ВАЖНО

ИГРА 18+

pack

RePack

MK11
pack

Легкие деньги

RePack

jed

RePack

fifa19

RePack

RDR2

RePack

NEED FOR SPEED™ PAYBACK

4 сезон

9 сезон

Бесстыжие 9 сезон

Все сериалы

все сериалы на PB.wtf

RePack

FAR CRY 5

Anonymous, доброй ночи, мы не успеваем собрать деньги на оплату серверов за декабрь и январь, помогите нам пожалуйста в это трудное время. В качестве благодарности мы отключим Вам всю рекламу на сайте (укажите свой ник в строку Ваше имя)!

×
  
Magnet ссылка

Майло / Bad Milo! (Джейкоб Вон / Jacob Vaughan) [2013, США, ужасы, комедия, фэнтези, HDRip,Профессиональный (многоголосый, закадровый)[Лицензия] pb.wtf

Майло через торрент pb.wtf

Размер: 1.37 GB | Добавлен: 6 лет 7 мес. назад | Торрент скачан:1150 раз
Скачать  

26-05-2014 03:20 Майло Скачать торрент  

Майло / Bad Milo!

Год выпуска: 2013
Страна: США
Жанр: ужасы, комедия, фэнтези
Продолжительность: 01:24:07
Перевод: Профессиональный (многоголосый, закадровый)[Лицензия]
Субтитры: Нет
Режиссер: Джейкоб Вон / Jacob Vaughan
В ролях: Кен Марино (Duncan), Джиллиан Джейкобс (Sarah), Патрик Варбертон (Phil), Мэри Кэй Плэйс (Beatrice), Стивен Рут (Roger), Петер Стормаре (Highsmith), Клаудия Чои (Jillian), Тоби Хасс (Dr. Yeager), Эрик Чарльз Нилсен (Allistair), Кумэйл Нанджиани (Bobbi), Стив Зиссис (Dr. Yip / Milo, озвучка), Джэйк Бродер (Bradley)
Описание:
Молодой мужчина обнаруживает, что в стрессовых ситуациях превращается в страшного гнома, который живет внутри него и выходит, чтобы отомстить всем его беспокоящим. Только за счет управления своим стрессом и борьбы с этим демоном он может защитить себя и своих близких от страданий и ужасной смерти.
Рейтинг
kinopoisk.ru: 4.639 (233)
imdb.com: 5.80 (2694)
MPAA: R - Лицам до 17 лет обязательно присутствие взрослого
Качество: HDRip
Формат: AVI
Видео кодек: XviD
Аудио кодек: AC3
Видео: XviD, 720x384 (1.875), 1930 kbps, 23,976 fps, 0,291 bpp
Аудио: AC3 / 5.1 / 48 kHz / 384 kbps / 16 bit

General
Complete name : D:\Торенты\Majl0.2013.P.HDRi.avi
Format : AVI
Format/Info : Audio Video Interleave
File size : 1.37 GiB
Duration : 1h 24mn
Overall bit rate : 2 324 Kbps
Writing application : VirtualDubMod 1.5.10.2 (build 2540/release)
Writing library : VirtualDubMod build 2540/release

Video
ID : 0
Format : MPEG-4 Visual
Format profile : Advanced Simple@L5
Format settings, BVOP : 2
Format settings, QPel : No
Format settings, GMC : No warppoints
Format settings, Matrix : Default (MPEG)
Codec ID : XVID
Codec ID/Hint : XviD
Duration : 1h 24mn
Bit rate : 1 931 Kbps
Width : 720 pixels
Height : 384 pixels
Display aspect ratio : 1.875
Frame rate : 23.976 fps
Color space : YUV
Chroma subsampling : 4:2:0
Bit depth : 8 bits
Scan type : Progressive
Compression mode : Lossy
Bits/(Pixel*Frame) : 0.291
Stream size : 1.13 GiB (83%)
Writing library : XviD 1.2.1 (UTC 2008-12-04)

Audio
ID : 1
Format : AC-3
Format/Info : Audio Coding 3
Mode extension : CM (complete main)
Codec ID : 2000
Duration : 1h 24mn
Bit rate mode : Constant
Bit rate : 384 Kbps
Channel(s) : 6 channels
Channel positions : Front: L C R, Side: L R, LFE
Sampling rate : 48.0 KHz
Bit depth : 16 bits
Compression mode : Lossy
Stream size : 231 MiB (17%)
Alignment : Split accross interleaves
Interleave, duration : 42 ms (1.00 video frame)
Interleave, preload duration : 500 ms
pb.wtf



Скачать Майло через торрент http://i63.fastpic.ru/big/2014/0526/6d/136f42ae547b5b6db665dc0e62e7af6d.jpg Скачать фильм Майло через торрент бесплантно в хорошем качестве Описание: Молодой мужчина обнаруживает, что в стрессовых ситуациях превращается в страшного гнома, который живет внутри него и выходит, ... 9.8 10 25
Торрент: Зарегистрирован [2014-05-26 03:20] · скачан: 1 150 раз
Статус: √ проверено
Размер: 1.37 GB
Как cкачать? Как скачать Майло через торрент | UTorrent

% Раздел Тема Автор DL S | L
T Фильмы 2013 (Звук TS, Cam, VO, DVO) [ 1.46 GB ] Майло / Bad Milo! [2013 HDRip Любительский одноголосый] coc900 Скачать
1 | 0
Фильмы [HD 720p, 1080p] (Хороший звук DUB, MVO) [ 6.33 GB ] Майло / Bad Milo! [2013 BDRip 1080pMVO [] от R.G. HD-Films Ворон Скачать
1 | 0
T Фильмы 2013 (Звук TS, Cam, VO, DVO) [ 1.37 GB ] Майло / Bad Milo! [2013 WEB-DLRip VO ] [zelesk]+Оригинал Ворон Скачать
1 | 0

28-11-2019 20:33  

Отключить всю рекламу на сайте

26-05-2014 11:14 Майло Скачать торрент  

Монстр вылезающий из задницы это конечно сильно и очень по-американски ))) Все они там, анальные демоны )))pb.wtf



26-05-2014 14:23 Майло Скачать торрент  

cbvvr писал(а):

Монстр вылезающий из задницы это конечно сильно и очень по-американски ))) Все они там, анальные демоны )))

roflpb.wtf



14-06-2014 14:24 Майло Скачать торрент  

cbvvr писал(а):

Монстр вылезающий из задницы это конечно сильно и очень по-американски ))) Все они там, анальные демоны )))

Потому что снимали братья DUPLASS-так сказать говорящая фамилия!!!))))))))))pb.wtf



    Дорогой пользователь! Огромная просьба, поблагодарите релизера, оцените раздачу и оставьте свои комментарий, если Вы скачали Майло через торрент бесплатно! Внесите свою лепту в развитие PiratBit!
    Комментировать посты могут только пользователи прошедшие не сложную регистрацию
    Показать сообщения:    

    Майло через торрент
    Скачать бесплатно Майло
    Майло скачать торрент
    Майло смотреть онлайн
    Cкачать фильм Майло бесплатно
    Майло скачать торрент в хорошем качестве
    Майло смотреть онлайн бесплатно в хорошем качестве


    Вы не можете начинать темы
    Вы не можете отвечать на сообщения
    Вы не можете редактировать свои сообщения
    Вы не можете удалять свои сообщения
    Вы не можете голосовать в опросах
    Вы не можете прикреплять файлы к сообщениям
    Вы можете скачивать файлы