Ссылка на приватное зеркало нашего сайта всего за 1$. Внимание количество ограничено!!!

2 сезон

iTunes

1 сезон

1

iTunes

iTunes

iTunes

1 сезон

RePack

30

ИГРА 18+

pack

ВАЖНО

!!Акция!!

Alien_RageХит недели

RePack

MK11
pack

Забери бонус

RePack

jed

!!Акция!!

Alien_Rage

RePack

fifa19

RePack

Assassins Creed: Odyssey

RePack

NEED FOR SPEED™ PAYBACK

4 сезон

9 сезон

Бесстыжие 9 сезон

Все сериалы

все сериалы на PB.wtf

RePack

FAR CRY 5
  

Бесы / 1 сезон / серии 1-4 и 4 (Владимир Хотиненко) [2014, Россия, драма, детектив, HDTVRip] pb.wtf

Бесы через торрент pb.wtf

Размер: 3.25 GB | Добавлен: 6 лет 4 мес. назад | Торрент скачан:959 раз
Скачать  

26-05-2014 05:43 Бесы Скачать торрент  

БесыГод выпуска: 2014
Страна: Россия
Жанр: драма, детектив
Продолжительность: ~00:57:05 (Серия)
Перевод: Не требуется
Субтитры: Нет
Режиссер: Владимир Хотиненко
Сценарий: Владимир Хотиненко, Фёдор Достоевский
Оператор: Денис Аларкон Рамирес
Композитор: Алексей Айги
В ролях:
Максим Матвеев (Николай Ставрогин), Сергей Маковецкий (следователь Горемыкин), Андрей Мерзликин (Шатов), Антон Шагин (Петр Верховенский), Игорь Костолевский (Степан Верховенский), Александр Галибин (губернатор фон Лембке), Алексей Кирсанов (Кириллов), Мария Луговая (Даша Шатова)
Описание:
Конец 19-го века. В губернском городе N происходит серия загадочных убийств. На место преступления приезжает столичный следователь Горемыкин. Поиски убийц приводят его к неожиданному выводу - в городе создан революционный кружок, в котором состоят два молодых человека, недавно вернувшиеся из Швейцарии.
Рейтинг
kinopoisk.ru: 7.860 (159)
Качество: HDTVRip
Формат: AVI
Видео кодек: XviD
Аудио кодек: AC3
Видео: 1691 Кбит/сек, 720*400 (16:9), в 25,000 кадров/сек, MPEG-4 Visual (XviD)
Аудио: 192 Кбит/сек, 48,0 КГц, 16 бит, 2 канала, AC-3
Общее
Полное имя : H:\ТОРРЕНТЫ\Бесы\Бесы1.avi
Формат : AVI
Формат/Информация : Audio Video Interleave
Размер файла : 812 Мбайт
Продолжительность : 59 м.
Общий поток : 1900 Кбит/сек
Библиотека кодирования : VirtualDub build 32507/release

Видео
Идентификатор : 0
Формат : MPEG-4 Visual
Профиль формата : Advanced Simple@L5
Параметр BVOP формата : 2
Параметр QPel формата : Нет
Параметр GMC формата : Без точки перехода
Параметр матрицы формата : Default (H.263)
Режим смешивания : Сжатый битовый поток
Идентификатор кодека : XVID
Идентификатор кодека/Подсказка : XviD
Продолжительность : 59 м.
Битрейт : 1699 Кбит/сек
Ширина : 720 пикселей
Высота : 400 пикселей
Соотношение сторон : 16:9
Частота кадров : 25,000 кадров/сек
Цветовое пространство : YUV
Субдискретизация насыщенности : 4:2:0
Битовая глубина : 8 бит
Тип развёртки : Прогрессивная
Метод сжатия : С потерями
Бит/(Пиксели*Кадры) : 0.236
Размер потока : 726 Мбайт (89%)
Библиотека кодирования : XviD 1.2.1 (UTC 2008-12-04)

Аудио
Идентификатор : 1
Формат : AC-3
Формат/Информация : Audio Coding 3
Расширение режима : CM (complete main)
Параметр Endianness формата : Big
Идентификатор кодека : 2000
Продолжительность : 59 м.
Вид битрейта : Постоянный
Битрейт : 192 Кбит/сек
Каналы : 2 канала
Расположение каналов : Front: L R
Частота : 48,0 КГц
Битовая глубина : 16 бит
Метод сжатия : С потерями
Размер потока : 82,0 Мбайт (10%)
Выравнивание : Соединение по промежуткам
Продолжительность промежутка : 40 мс. (1,00 видеокадр)
Время предзагрузки промежутка : 512 мс.

скриншот   скриншот   скриншот   скриншот   скриншот   скриншот   скриншот   скриншот   скриншот   скриншот  

pb.wtf



Скачать Бесы через торрент http://pic.kartinco.top/images/6/m2wmz.jpg Скачать фильм Бесы через торрент бесплантно в хорошем качестве Описание:Конец 19-го века. В губернском городе N происходит серия загадочных убийств. На место преступления приезжает столичный следователь ... 9.7 10 30
Info! Золотая раздача, скачанное не засчитывается.
Торрент: Зарегистрирован [2014-05-26 05:43] · скачан: 959 раз
Статус: √ проверено
Размер: 3.25 GB
Как cкачать? Как скачать Бесы через торрент | qTorrent

28-11-2019 20:33  

Отключить всю рекламу на сайте

26-05-2014 17:03 Бесы Скачать торрент  

ДАЕШЬ ЗОЛОТО yespb.wtf



    Дорогой пользователь! Огромная просьба, поблагодарите релизера, оцените раздачу и оставьте свои комментарий, если Вы скачали Бесы через торрент бесплатно! Внесите свою лепту в развитие PiratBit!
    Комментировать посты могут только пользователи прошедшие не сложную регистрацию
    Показать сообщения:    

    Бесы через торрент
    Скачать бесплатно Бесы
    Бесы скачать торрент
    Бесы смотреть онлайн
    Cкачать фильм Бесы бесплатно
    Бесы скачать торрент в хорошем качестве
    Бесы смотреть онлайн бесплатно в хорошем качестве


    Вы не можете начинать темы
    Вы не можете отвечать на сообщения
    Вы не можете редактировать свои сообщения
    Вы не можете удалять свои сообщения
    Вы не можете голосовать в опросах
    Вы не можете прикреплять файлы к сообщениям
    Вы можете скачивать файлы