2 сезон

iTunes

MVO

1

2 сезон

iTunes

iTunes

1 сезон

RePack

30

Новинка

ВАЖНО

ИГРА 18+

pack

RePack

MK11
pack

Легкие деньги

RePack

jed

RePack

fifa19

RePack

RDR2

RePack

NEED FOR SPEED™ PAYBACK

4 сезон

9 сезон

Бесстыжие 9 сезон

Все сериалы

все сериалы на PB.wtf

RePack

FAR CRY 5

Anonymous, доброе утро, мы не успеваем собрать деньги на оплату серверов за декабрь и январь, помогите нам пожалуйста в это трудное время. В качестве благодарности мы отключим Вам всю рекламу на сайте (укажите свой ник в строку Ваше имя)!

×
  
Magnet ссылка

Последний рубеж / Homefront (Гэри Фледер / Gary Fleder) [2013 г., Боевик, триллер, криминал, BDRip-AVC] [Дубляж - ["Мосфильм мастер"] pb.wtf

Последний рубеж через торрент pb.wtf

Размер: 1.46 GB | Добавлен: 6 лет 7 мес. назад | Торрент скачан:913 раз
Скачать  

26-05-2014 06:00 Последний рубеж Скачать торрент  

«На что ты готов ради защиты своей семьи?»
Последний рубеж / HomefrontГод выпуска: 2013
Страна: США / Homefront Productions, Millennium Films, Mojo Films, Nu Image Films
Жанр: Боевик, триллер, криминал
Продолжительность: 01:40:34
Перевод: [Дубляж - ["Мосфильм мастер"]
Субтитры: Русские (+18), английские (Full + SDH + SDH-Colored)

Режиссер: Гэри Фледер / Gary Fleder



В ролях: Джейсон Стэйтем, Джеймс Франко, Изабела Видович, Вайнона Райдер, Кейт Босворт, Клэнси Браун, Рашель Лефевр, Омар Бенсон Миллер, Маркус Хестер, Фрэнк Грилло и др.

Описание: Фил Брокер - бывший агент из отдела борьбы с наркотиками. Фил переезжает в небольшой город вместе с семьёй в надежде забыть прошлое. Но он узнает, что город только со стороны кажется тихим и спокойным местом, на самом деле он кишит насилием, наркотиками, а всем этим заправляет злодей по кличке Аллигатор…

Качество: BDRip-AVC
Формат: MKV
Видео кодек: H.264
Аудио кодек: AC3
Видео: 1280x532 (2,40:1), 23,976 fps, 6945 Кbps, 0.425 bit/pixel
Аудио: 48 kHz, AC3 Dolby Digital, 3/2 (L,C,R,l,r) + LFE ch, 448.00 kbps

Релиз группы:
Автор рипа: potroks

Общее
Уникальный идентификатор : 234890892600114192600267557095787061704 (0xB0B65722A299E4AE872BC9668FE5E1C8)
Полное имя : Posledniy.Rubezh.2013.RUS.BDRip.x264.potroks.mkv
Формат : Matroska
Версия формата : Version 4 / Version 2
Размер файла : 1,46 Гбайт
Продолжительность : 1 ч. 40 м.
Общий поток : 2084 Кбит/сек
Название фильма : HELLYWOOD - rip by potroks
Дата кодирования : UTC 2014-05-26 05:32:37
Программа кодирования : mkvmerge v5.9.0 ('On The Loose') built on Dec 15 2012 16:39:58
Библиотека кодирования : libebml v1.3.0 + libmatroska v1.4.0

Видео
Идентификатор : 1
Формат : AVC
Формат/Информация : Advanced Video Codec
Профиль формата : High@L4.1
Параметр CABAC формата : Да
Параметр ReFrames формата : 12 кадров
Идентификатор кодека : V_MPEG4/ISO/AVC
Продолжительность : 1 ч. 40 м.
Битрейт : 1637 Кбит/сек
Ширина : 924 пикселя
Высота : 384 пикселя
Соотношение сторон : 2,40:1
Режим частоты кадров : Постоянный
Частота кадров : 23,976 кадра/сек
Цветовое пространство : YUV
Субдискретизация насыщенности : 4:2:0
Битовая глубина : 8 бит
Тип развёртки : Прогрессивная
Бит/(Пиксели*Кадры) : 0.192
Размер потока : 1,12 Гбайт (77%)
Заголовок : Homefront
Библиотека кодирования : x264 core 130 r2273 b3065e6
Настройки программы : cabac=1 / ref=12 / deblock=1:-2:-2 / analyse=0x3:0x133 / me=umh / subme=11 / psy=1 / psy_rd=1.00:0.05 / mixed_ref=1 / me_range=32 / chroma_me=1 / trellis=2 / 8x8dct=1 / cqm=0 / deadzone=21,11 / fast_pskip=0 / chroma_qp_offset=-3 / threads=6 / lookahead_threads=1 / sliced_threads=0 / nr=0 / decimate=0 / interlaced=0 / bluray_compat=0 / constrained_intra=0 / bframes=13 / b_pyramid=2 / b_adapt=2 / b_bias=0 / direct=3 / weightb=1 / open_gop=0 / weightp=2 / keyint=250 / keyint_min=23 / scenecut=40 / intra_refresh=0 / rc_lookahead=60 / rc=2pass / mbtree=0 / bitrate=1637 / ratetol=1.0 / qcomp=0.70 / qpmin=0 / qpmax=69 / qpstep=4 / cplxblur=20.0 / qblur=0.5 / vbv_maxrate=20000 / vbv_bufsize=20000 / nal_hrd=none / ip_ratio=1.35 / pb_ratio=1.25 / aq=2:0.80
Язык : English
Default : Да
Forced : Нет

Аудио
Идентификатор : 2
Формат : AC-3
Формат/Информация : Audio Coding 3
Расширение режима : CM (complete main)
Параметр Endianness формата : Big
Идентификатор кодека : A_AC3
Продолжительность : 1 ч. 40 м.
Вид битрейта : Постоянный
Битрейт : 448 Кбит/сек
Каналы : 6 каналов
Расположение каналов : Front: L C R, Side: L R, LFE
Частота : 48,0 КГц
Битовая глубина : 16 бит
Метод сжатия : С потерями
Размер потока : 322 Мбайт (21%)
Заголовок : Dub | DD 5.1 @ 448 kbps - BD RUS
Язык : Russian
Default : Да
Forced : Нет

Текст #1
Идентификатор : 3
Формат : UTF-8
Идентификатор кодека : S_TEXT/UTF8
Идентификатор кодека/Информация : UTF-8 Plain Text
Язык : Russian
Default : Нет
Forced : Нет

Текст #2
Идентификатор : 4
Формат : UTF-8
Идентификатор кодека : S_TEXT/UTF8
Идентификатор кодека/Информация : UTF-8 Plain Text
Заголовок : Full
Язык : English
Default : Нет
Forced : Нет

Текст #3
Идентификатор : 5
Формат : UTF-8
Идентификатор кодека : S_TEXT/UTF8
Идентификатор кодека/Информация : UTF-8 Plain Text
Заголовок : SDH
Язык : English
Default : Нет
Forced : Нет

Текст #4
Идентификатор : 6
Формат : UTF-8
Идентификатор кодека : S_TEXT/UTF8
Идентификатор кодека/Информация : UTF-8 Plain Text
Заголовок : SDH-Colored
Язык : English
Default : Нет
Forced : Нет

Меню
00:00:00.000 : en:(01)00:00:00:000
00:04:55.461 : en:(02)00:04:55:461
00:09:14.095 : en:(03)00:09:14:095
00:14:55.853 : en:(04)00:14:55:853
00:21:42.426 : en:(05)00:21:42:426
00:25:03.001 : en:(06)00:25:03:001
00:31:23.214 : en:(07)00:31:23:214
00:34:04.000 : en:(08)00:34:04:000
00:39:01.088 : en:(09)00:39:01:088
00:45:47.995 : en:(10)00:45:47:995
00:49:29.257 : en:(11)00:49:29:257
00:55:16.479 : en:(12)00:55:16:479
01:01:55.420 : en:(13)01:01:55:420
01:08:56.173 : en:(14)01:08:56:173
01:12:27.634 : en:(15)01:12:27:634
01:16:00.973 : en:(16)01:16:00:973
01:19:15.250 : en:(17)01:19:15:250
01:24:02.620 : en:(18)01:24:02:620
01:29:39.123 : en:(19)01:29:39:123
01:35:16.961 : en:(20)01:35:16:961
01:40:34.611 : en:(21)01:40:34:611

pb.wtf



Скачать Последний рубеж через торрент http://pic.kartinco.top/images/6/ksw4k.jpg Скачать фильм Последний рубеж через торрент бесплантно в хорошем качестве Описание: Фил Брокер - бывший агент из отдела борьбы с наркотиками. Фил переезжает в небольшой город вместе с семьёй в надежде забыть ... 9.2 10 22
Info! Золотая раздача, скачанное не засчитывается.
Торрент: Зарегистрирован [2014-05-26 06:00] · скачан: 913 раз
Статус: √ проверено
Размер: 1.46 GB
Как cкачать? Как скачать Последний рубеж через торрент | UTorrent

% Раздел Тема Автор DL S | L
Фильмы (DVD фильмы) [ 5.22 GB ] Последний рубеж / Homefront [2013 DVD9] R5 voovaz Скачать
1 | 0
Фильмы 2013 [DVDrip, WEB-DLRip, HDrip] [ 1.45 GB ] Последний рубеж / Homefront [2013 BDRip / DUB Ворон Скачать
1 | 0
Фильмы [HD 720p, 1080p] (Хороший звук DUB, MVO) [ 12.67 GB ] Последний рубеж / Homefront [2013 BDRip 1080p [ - ["Мосфильм мастер"] Seedtank Скачать
1 | 0
Фильмы (Blu-ray, BD-Remux, HDDVD) [ 37.26 GB ] Последний рубеж / Homefront [2013 Blu-ray [ - ["Мосфильм мастер"] Бумер Скачать
1 | 0
Фильмы 2013 [DVDrip, WEB-DLRip, HDrip] [ 1.46 GB ] Последний рубеж / Homefront [2013 HDRip-AVC] [ - ["Мосфильм мастер"]] От R.G. PiratFilms White Smoke Скачать
1 | 0
Фильмы (Blu-ray, BD-Remux, HDDVD) [ 23.56 GB ] Последний рубеж / Homefront [2013 BD-Remux Д [ - ["Мосфильм мастер"] Seedtank Скачать
1 | 0
Фильмы [HD 720p, 1080p] (Хороший звук DUB, MVO) [ 5.77 GB ] Последний рубеж / Homefront [2013 BDRip 720p] [ - ["Мосфильм мастер"] potroks Скачать
1 | 0

28-11-2019 20:33  

Отключить всю рекламу на сайте

    Дорогой пользователь! Огромная просьба, поблагодарите релизера, оцените раздачу и оставьте свои комментарий, если Вы скачали Последний рубеж через торрент бесплатно! Внесите свою лепту в развитие PiratBit!
    Комментировать посты могут только пользователи прошедшие не сложную регистрацию
    Показать сообщения:    

    Последний рубеж через торрент
    Скачать бесплатно Последний рубеж
    Последний рубеж скачать торрент
    Последний рубеж смотреть онлайн
    Cкачать фильм Последний рубеж бесплатно
    Последний рубеж скачать торрент в хорошем качестве
    Последний рубеж смотреть онлайн бесплатно в хорошем качестве


    Вы не можете начинать темы
    Вы не можете отвечать на сообщения
    Вы не можете редактировать свои сообщения
    Вы не можете удалять свои сообщения
    Вы не можете голосовать в опросах
    Вы не можете прикреплять файлы к сообщениям
    Вы можете скачивать файлы