2 сезон

iTunes

MVO

1

2 сезон

iTunes

iTunes

1 сезон

RePack

30

Новинка

ВАЖНО

ИГРА 18+

pack

RePack

MK11
pack

Легкие деньги

RePack

jed

RePack

fifa19

RePack

RDR2

RePack

NEED FOR SPEED™ PAYBACK

4 сезон

9 сезон

Бесстыжие 9 сезон

Все сериалы

все сериалы на PB.wtf

RePack

FAR CRY 5

Anonymous, добрый вечер, мы не успеваем собрать деньги на оплату серверов за декабрь и январь, помогите нам пожалуйста в это трудное время. В качестве благодарности мы отключим Вам всю рекламу на сайте (укажите свой ник в строку Ваше имя)!

×
  
Magnet ссылка

Последний рубеж / Homefront (Гэри Фледер) [2013 г., Боевик, криминал, HDRip-AVC], [Дубляж - ["Мосфильм мастер"]] От R.G. PiratFilms pb.wtf

Последний рубеж через торрент pb.wtf

Размер: 1.46 GB | Добавлен: 6 лет 7 мес. назад | Торрент скачан:267 раз
Скачать  

26-05-2014 16:05 Последний рубеж Скачать торрент  

Год выпуска: 2013
Страна: США
Жанр: Боевик, криминал
Продолжительность: 01:40:34
Перевод: [Дубляж - ["Мосфильм мастер"]

Режиссер: Гэри Фледер

В ролях: Джейсон Стэйтем, Джеймс Франко, Изабела Видович, Вайнона Райдер, Кейт Босворт, Клэнси Браун, Рашель Лефевр, Омар Бенсон Миллер, Маркус Хестер, Фрэнк Грилло

Описание: Фил Брокер — бывший агент из отдела борьбы с наркотиками. Фил переезжает в небольшой город вместе с семьей в надежде забыть прошлое. Но он узнает, что город только со стороны кажется тихим и спокойным местом, на самом деле он кишит насилием, наркотиками, а всем этим заправляет злодей по кличке Аллигатор…

Качество: HDRip-AVC
Исходник :BDRip 1080р
Формат: MKV
Видео кодек: AVC
Аудио кодек: AC3
Видео: AVC, 1024x426 (2.40:1), 23.976 fps, 1 633 Kbps (0.156 bit/pixel)
Аудио: AC-3, 48.0 KHz, 6 ch, 448 Kbps, CBR
Релиз от: Рип by White Smoke
скриншот   скриншот   скриншот   скриншот   скриншот   скриншот   скриншот  

Код:

---[Information] [26.05.2014 8:54:00] x264 [info]: frame I:1236  Avg QP:16.45  size: 66751  PSNR Mean Y:46.88 U:49.55 V:48.46 Avg:47.40 Global:46.93
---[Information] [26.05.2014 8:54:00] x264 [info]: frame P:35001 Avg QP:19.67  size: 16679  PSNR Mean Y:44.98 U:48.74 V:47.77 Avg:45.72 Global:45.02
---[Information] [26.05.2014 8:54:00] x264 [info]: frame B:108454 Avg QP:21.12  size:  5202  PSNR Mean Y:44.39 U:49.10 V:47.96 Avg:45.22 Global:44.42
---[Information] [26.05.2014 8:54:00] x264 [info]: consecutive B-frames:  3.2%  4.1%  8.9% 38.7% 12.8% 15.3%  4.0%  6.8%  4.3%  1.0%  0.9%

Общее
Уникальный идентификатор                 : 192704223069070925140320283160798631086 (0x90F97BBD9A555FE28F1A2DFDBBC114AE)
Полное имя                               : D:\Games\Posledniy.Rubej.2013.HDRip-AVC.by.White Smoke. R.G. PiratFilms.mkv
Формат                                   : Matroska
Версия формата                           : Version 4 / Version 2
Размер файла                             : 1,46 Гбайт
Продолжительность                        : 1 ч. 40 м.
Общий поток                              : 2081 Кбит/сек
Название фильма                          : Posledniy.Rubej.2013.HDRip-AVC.by White Smoke. R.G. PiratFilms.mkv
Дата кодирования                         : UTC 2014-05-26 11:21:34
Программа кодирования                    : mkvmerge v6.8.0 ('Theme for Great Cities') 64bit built on Mar  2 2014 21:34:26
Библиотека кодирования                   : libebml v1.3.0 + libmatroska v1.4.1

Видео
Идентификатор                            : 1
Формат                                   : AVC
Формат/Информация                        : Advanced Video Codec
Профиль формата                          : High@L4.1
Параметр CABAC формата                   : Да
Параметр ReFrames формата                : 12 кадров
Идентификатор кодека                     : V_MPEG4/ISO/AVC
Продолжительность                        : 1 ч. 40 м.
Битрейт                                  : 1633 Кбит/сек
Ширина                                   : 1024 пикселя
Высота                                   : 426 пикселей
Соотношение сторон                       : 2,40:1
Режим частоты кадров                     : Постоянный
Частота кадров                           : 23,976 кадра/сек
Цветовое пространство                    : YUV
Субдискретизация насыщенности            : 4:2:0
Битовая глубина                          : 8 бит
Тип развёртки                            : Прогрессивная
Бит/(Пиксели*Кадры)                      : 0.156
Размер потока                            : 1,12 Гбайт (76%)
Библиотека кодирования                   : x264 core 138 r2358 9e941d1
Настройки программы                      : cabac=1 / ref=12 / deblock=1:-3:-3 / analyse=0x3:0x113 / me=umh / subme=9 / psy=1 / psy_rd=1.00:0.00 / mixed_ref=1 / me_range=32 / chroma_me=1 / trellis=2 / 8x8dct=1 / cqm=0 / deadzone=21,11 / fast_pskip=1 / chroma_qp_offset=-2 / threads=12 / lookahead_threads=3 / sliced_threads=0 / nr=0 / decimate=1 / interlaced=0 / bluray_compat=0 / constrained_intra=0 / bframes=10 / b_pyramid=2 / b_adapt=2 / b_bias=10 / direct=1 / weightb=0 / open_gop=0 / weightp=2 / keyint=240 / keyint_min=23 / scenecut=40 / intra_refresh=0 / rc_lookahead=40 / rc=2pass / mbtree=1 / bitrate=1633 / ratetol=1.0 / qcomp=0.65 / qpmin=0 / qpmax=69 / qpstep=4 / cplxblur=20.0 / qblur=0.5 / ip_ratio=1.40 / aq=1:1.00
Язык                                     : English
Default                                  : Да
Forced                                   : Нет

Аудио
Идентификатор                            : 2
Формат                                   : AC-3
Формат/Информация                        : Audio Coding 3
Расширение режима                        : CM (complete main)
Параметр Endianness формата              : Big
Идентификатор кодека                     : A_AC3
Продолжительность                        : 1 ч. 40 м.
Вид битрейта                             : Постоянный
Битрейт                                  : 448 Кбит/сек
Каналы                                   : 6 каналов
Расположение каналов                     : Front: L C R, Side: L R, LFE
Частота                                  : 48,0 КГц
Битовая глубина                          : 16 бит
Метод сжатия                             : С потерями
Размер потока                            : 322 Мбайт (22%)
Default                                  : Да
Forced                                   : Нет[


За Обложку к релизу спасибо XLASERpb.wtf



Скачать Последний рубеж через торрент http://pic.kartinco.top/new/img/2014-05/26/x8glrnf92vmuj1cd308ym8ucj.png Скачать фильм Последний рубеж через торрент бесплантно в хорошем качестве Описание: Фил Брокер — бывший агент из отдела борьбы с наркотиками. Фил переезжает в небольшой город вместе с семьей в надежде забыть ... 8.9 10 9
Info! Золотая раздача, скачанное не засчитывается.
Торрент: Зарегистрирован [2014-05-26 16:05] · скачан: 267 раз
Статус: √ проверено
Размер: 1.46 GB
Как cкачать? Как скачать Последний рубеж через торрент | UTorrent

28-11-2019 20:33  

Отключить всю рекламу на сайте

26-05-2014 16:20 Последний рубеж Скачать торрент  

Пааааасиба!!!pb.wtf



27-05-2014 10:44 Последний рубеж Скачать торрент  

Фильм понравился. Немного нудный, но в целом на 7 из 10 потянет. ИМХО
Автор, спасибо за труд!pb.wtf



    Дорогой пользователь! Огромная просьба, поблагодарите релизера, оцените раздачу и оставьте свои комментарий, если Вы скачали Последний рубеж через торрент бесплатно! Внесите свою лепту в развитие PiratBit!
    Комментировать посты могут только пользователи прошедшие не сложную регистрацию
    Показать сообщения:    

    Последний рубеж через торрент
    Скачать бесплатно Последний рубеж
    Последний рубеж скачать торрент
    Последний рубеж смотреть онлайн
    Cкачать фильм Последний рубеж бесплатно
    Последний рубеж скачать торрент в хорошем качестве
    Последний рубеж смотреть онлайн бесплатно в хорошем качестве


    Вы не можете начинать темы
    Вы не можете отвечать на сообщения
    Вы не можете редактировать свои сообщения
    Вы не можете удалять свои сообщения
    Вы не можете голосовать в опросах
    Вы не можете прикреплять файлы к сообщениям
    Вы можете скачивать файлы